Американская колония: Знакомство с гуттеритами ( Деньги вперёд! ) / American Colony: Meet the Hutterites ( Show Me the Money! ) [2012, Документальный, SATRip]

Научно-популярные фильмы Национального географического общества
Торрент Сидеров Личеров Размер
torrent_4383953.torrent
0 0 651.63 МБ
Аватара пользователя
Солнышко
Сообщения: 22944
Зарегистрирован: 13 янв 2016, 22:10

Американская колония: Знакомство с гуттеритами ( Деньги вперёд! ) / American Colony: Meet the Hutterites ( Show Me the Money! ) [2012, Документальный, SATRip]

Сообщение Солнышко » 22 мар 2018, 21:47

Американская колония: Знакомство с гуттеритами ( Деньги вперёд! )


Оригинальное название: American Colony: Meet the Hutterites ( Show Me the Money! )
Год выпуска: 2012
Страна: США
Жанр: документальный
Продолжительность: ~ 00:45:30
Перевод: Профессиональный (одноголосый, закадровый) [АРК-ТВ, Игорь Тарадайкин]
В ролях: Anthony Hofer, Bertha Hofer, Carver Hofer, Claudia Hofer, Toby Hofer, Wesley Hofer
Описание: Марвину не хватает денег на оплату счетов колонии, и он пытается что-то придумать. Клаудиа бросает вызов традициям и выходит в коротком платье

Сэмпл: http://multi-up.com/844429
Качество видео: SATRip
Формат: AVI
Видео кодек: XviD
Аудио кодек: MP3
Видео: 704x400 (16:9), 25 fps, XviD MPEG-4 ~ 1801 Kbps
Аудио: 48 kHz, MPEG Layer 3, 2ch, ~ 192 Kbps

Код: Выделить всё

Общее
Полное имя                               : American.Colony.Meet.The.Hutterites.Show.Me.The.Money.2012.SATRip.by.Slipknot_cooler.avi
Формат                                   : AVI
Формат/Информация                        : Audio Video Interleave
Размер файла                             : 652 Мбайт
Продолжительность                        : 45 м.
Общий поток                              : 2003 Кбит/сек
Программа кодирования                    : VirtualDubModRus 1.5.10.2 (build 2540/release)
Библиотека кодирования                   : VirtualDubMod build 2540/release
Видео
Идентификатор                            : 0
Формат                                   : MPEG-4 Visual
Профиль формата                          : Advanced Simple@L5
Параметр BVOP формата                    : 2
Параметр QPel формата                    : Нет
Параметр GMC формата                     : Без точки перехода
Параметр матрицы формата                 : Default (H.263)
Идентификатор кодека                     : XVID
Идентификатор кодека/Подсказка           : XviD
Продолжительность                        : 45 м.
Битрейт                                  : 1801 Кбит/сек
Ширина                                   : 704 пикселя
Высота                                   : 400 пикселей
Соотношение сторон                       : 16:9
Частота кадров                           : 25,000 кадров/сек
Цветовое пространство                    : YUV
Субдискретизация насыщенности            : 4:2:0
Битовая глубина                          : 8 бит
Тип развёртки                            : Прогрессивная
Метод сжатия                             : С потерями
Бит/(Пиксели*Кадры)                      : 0.256
Размер потока                            : 586 Мбайт (90%)
Библиотека кодирования                   : XviD 1.2.1 (UTC 2008-12-04)
Аудио
Идентификатор                            : 1
Формат                                   : MPEG Audio
Версия формата                           : Version 1
Профиль формата                          : Layer 3
Идентификатор кодека                     : 55
Идентификатор кодека/Подсказка           : MP3
Продолжительность                        : 45 м.
Вид битрейта                             : Постоянный
Битрейт                                  : 192 Кбит/сек
Каналы                                   : 2 канала
Частота                                  : 48,0 КГц
Метод сжатия                             : С потерями
Размер потока                            : 62,5 Мбайт (10%)
Выравнивание                             : Соединение по промежуткам
Продолжительность промежутка             : 40  мс. (1,00 видеокадр)
Время предзагрузки промежутка            : 504  мс.
Библиотека кодирования                   : LAMEUPХ`d

У вас нет необходимых прав для просмотра вложений в этом сообщении.