Когда пришельцы нападут (Вторжение пришельцев) / When Aliens Attack (Alien Invasion) (Луис Тарантино / Louis C. Tarantino) [2011, Документальный, HDRip]

Научно-популярные фильмы Национального географического общества
Торрент Сидеров Личеров Размер
torrent_3648967.torrent
0 0 1.37 ГБ
Аватара пользователя
Солнышко
Сообщения: 22944
Зарегистрирован: 13 янв 2016, 22:10

Когда пришельцы нападут (Вторжение пришельцев) / When Aliens Attack (Alien Invasion) (Луис Тарантино / Louis C. Tarantino) [2011, Документальный, HDRip]

Сообщение Солнышко » 22 мар 2018, 21:49

Когда пришельцы нападут (Вторжение пришельцев) / When Aliens Attack (Alien Invasion)
Год выпуска: 2011
Страна: США (Flight 33 Productions, LLC), США (NGC Networks US)
Жанр: Документальный
Продолжительность: 01:31:38
Перевод: Профессиональный (одноголосый)
Режиссер: Луис Тарантино / Louis C. Tarantino
Описание: В научно-фантастическом триллере «Война миров» земляне ведут яростную борьбу за выживание в сражениях с инопланетными захватчиками. Все, что видит зритель на экране, включая атаки целых армад космических пришельцев – всего лишь плод яркой фантазии создателей фильма. Но, может ли этот сценарий стать реальностью, если попытаться представить себе, что точные науки вполне реально способны предположить такое развитие событий? В этой программе некоторые из самых известных американских ученых собрались вместе, чтобы изучить все последствия возможного контакта людей с инопланетным разумом для современного человечества. Узнайте о том, как ученые – астрофизики, изобретатели оружия, военные стратеги, биологи и антропологи всерьез рассматривают перспективу инопланетного вторжения на Землю и готовят планы по отражению атаки инопланетян. Ученые исследуют возможные события при контакте человечества с продвинутой инопланетной расой. Как отреагировал бы мир на вторжение пришельцев?
Доп. информация: Релиз группы
Автор постера и сведение дорожек - nyctalus по заказу релиз-группы DaVinci, за описание фильма очень признательны Externus712
Этот фильм в
HDTVRip 720p --->
Отличие в видеоряде между SATRip и HDRip незначительное
Качество: HDRip ()
Формат: AVI
Видео кодек: XviD
Аудио кодек: AC3
Видео: XviD, 1615 Кбит/с, 704x400, 29.970 fps
Аудио: Русский (AC3, 2 ch, 128 Кбит/с, 48 kHz), English (AC3, 6 ch, 384 Кбит/с, 48 kHz)

General
Complete name : Kogda.priwelcy.napadut.2011.XviD.HDRip_DaVinci.avi
Format : AVI
Format/Info : Audio Video Interleave
File size : 1.37 GiB
Duration : 1h 31mn
Overall bit rate : 2 145 Kbps
Writing application : VirtualDubMod 1.5.10.2 (build 2540/release)
Writing library : VirtualDubMod build 2540/release
Video #0
ID : 0
Format : MPEG-4 Visual
Format profile : AdvancedSimple@L5
Format settings, BVOP : Yes
Format settings, QPel : No
Format settings, GMC : No warppoints
Format settings, Matrix : Custom
Codec ID : XVID
Codec ID/Hint : XviD
Duration : 1h 31mn
Bit rate : 1 615 Kbps
Width : 704 pixels
Height : 400 pixels
Display aspect ratio : 16:9
Frame rate : 29.970 fps
Resolution : 24 bits
Colorimetry : 4:2:0
Scan type : Progressive
Bits/(Pixel*Frame) : 0.191
Stream size : 1.03 GiB (75%)
Writing library : XviD 64
Audio #1
ID : 1
Format : AC-3
Format/Info : Audio Coding 3
Codec ID : 2000
Duration : 1h 31mn
Bit rate mode : Constant
Bit rate : 128 Kbps
Channel(s) : 2 channels
Channel positions : L R
Sampling rate : 48.0 KHz
Stream size : 83.9 MiB (6%)
Alignment : Split accross interleaves
Interleave, duration : 33 ms (1.00 video frame)
Interleave, preload duration : 500 ms
Audio #2
ID : 2
Format : AC-3
Format/Info : Audio Coding 3
Codec ID : 2000
Duration : 1h 31mn
Bit rate mode : Constant
Bit rate : 384 Kbps
Channel(s) : 6 channels
Channel positions : Front: L C R, Surround: L R, LFE
Sampling rate : 48.0 KHz
Stream size : 252 MiB (18%)
Alignment : Split accross interleaves
Interleave, duration : 33 ms (1.00 video frame)
Interleave, preload duration : 500 ms
У вас нет необходимых прав для просмотра вложений в этом сообщении.