По следам мифических чудовищ: Кошмар в Амазонии / Beast Man. Amazon Nightmare (Бен Рой) [2010, Документальный, SATRip]

Научно-популярные фильмы Национального географического общества
Торрент Сидеров Личеров Размер
torrent_4418358.torrent
0 0 570.1 МБ
Аватара пользователя
Солнышко
Сообщения: 22944
Зарегистрирован: 13 янв 2016, 22:10

По следам мифических чудовищ: Кошмар в Амазонии / Beast Man. Amazon Nightmare (Бен Рой) [2010, Документальный, SATRip]

Сообщение Солнышко » 22 мар 2018, 21:50

По следам мифических чудовищ: Кошмар в Амазонии / Beast Man. Amazon Nightmare

Год выпуска: 2010
Страна: США
Жанр: Документальный
Продолжительность: 00:44:58
Перевод: Одноголосый закадровый
Русские субтитры: нет
Режиссер: Бен Рой
Описание: В самом сердце бразильской Амазонии ходят легенды об огромном одноглазом чудище с беспощадными когтями, свирепым воем, зловонным запахом и широко раскрывающейся пастью. Местные жители боятся произносить его имя. Для одних это существо из мира духов, для других же, пострадавших от него, этот зверь ещё как реален. Многие из тех, кто с ним сталкивался, говорят, что это сам дьявол. Пат Спейн, биолог и охотник за чудовищами отправляется на поиски правды об этом чудовище из Амазонии...
сэмпл
качество: SATRip
формат: AVI
видеокодек: XviD
аудиокодек: MP3
Видео: 704x400 (1.76:1), 25 fps, XviD build 65 ~1634 kbps avg, 0.23 bit/pixel
Аудио: 48 kHz, MPEG Layer 3, 2 ch, ~128.00 kbps avg
General
Complete name : C:\Documents and Settings\Mersicc\Мои документы\Beast Man. Amazon Nightmare (2010).avi
Format : AVI
Format/Info : Audio Video Interleave
File size : 570 MiB
Duration : 44mn 58s
Overall bit rate : 1 772 Kbps
Writing application : VirtualDubMod 1.5.10.3 | www.virtualdub-fr.org || (build 2550/release)
Writing library : VirtualDubMod build 2550/release
Video
ID : 0
Format : MPEG-4 Visual
Format profile : Advanced Simple@L5
Format settings, BVOP : 2
Format settings, QPel : No
Format settings, GMC : No warppoints
Format settings, Matrix : Default (H.263)
Codec ID : XVID
Codec ID/Hint : XviD
Duration : 44mn 58s
Bit rate : 1 634 Kbps
Width : 704 pixels
Height : 400 pixels
Display aspect ratio : 16:9
Frame rate : 25.000 fps
Color space : YUV
Chroma subsampling : 4:2:0
Bit depth : 8 bits
Scan type : Progressive
Compression mode : Lossy
Bits/(Pixel*Frame) : 0.232
Stream size : 526 MiB (92%)
Writing library : XviD 65
Audio
ID : 1
Format : MPEG Audio
Format version : Version 1
Format profile : Layer 3
Codec ID : 55
Codec ID/Hint : MP3
Duration : 44mn 58s
Bit rate mode : Constant
Bit rate : 128 Kbps
Channel(s) : 2 channels
Sampling rate : 48.0 KHz
Compression mode : Lossy
Stream size : 41.2 MiB (7%)
Alignment : Aligned on interleaves
Interleave, duration : 40 ms (1.00 video frame)
Interleave, preload duration : 504 ms
Writing library : LAME3.99.5ЄЄЄЄЄЄЄЄЄЄ
У вас нет необходимых прав для просмотра вложений в этом сообщении.