Дикий тунец (Выаусков: 1 из ...) [2012, Документальный, SATRip]

Научно-популярные фильмы Национального географического общества
Торрент Сидеров Личеров Размер
torrent_4551267.torrent
0 0 560.8 МБ
Аватара пользователя
Солнышко
Сообщения: 22944
Зарегистрирован: 13 янв 2016, 22:10

Дикий тунец (Выаусков: 1 из ...) [2012, Документальный, SATRip]

Сообщение Солнышко » 22 мар 2018, 21:51

Дикий тунец
Год выпуска: 2012
Страна: США
Жанр: Реальное ТВ
Продолжительность: 00:40:29
Перевод: Одноголосый закадровый
Русские субтитры: нет
Описание: Документальный фильм «Дикий тунец» рассказывает о работе бригад наиболее успешных рыболовецких судов Массачусетса, которые отправляются в плавание в поисках самой умной и неуловимой рыбы в океане – голубого тунца. В чем-то азартные игроки, в чем-то мастера рыболовного промысла, а в чем-то маньяки – капитаны этих судов ставят все на кон, чтобы поймать заветный «бриллиант» - тунца весом 450 кг. Одну из таких рыб можно продать за сотни тысяч долларов. Но для того чтобы сделать деньги, вначале нужно их потратить самому, и вот здесь начинается нечто похожее на ставки в казино. Каждые пять дней лова обходятся от 2000 до 20000 долларов на топливо, приманку, лед, продукты и рыболовные снасти. Все очень просто: без труда не выловишь и рыбку из пруда! Но смогут ли они поймать рыбу, которая окупит их вложения и принесет прибыль?
Внимание! Раздача ведётся путём добавления новых выпусков; при каждом добавлении создаётся новый торрент. Чтобы начать докачку нового выпуска, пользователям необходимо сделать следующее:
(1) остановить скачивание,
(2) удалить старый торрент у себя из клиента (старые серии удалять не надо),
(3) скачать новый торрент и запустить его у себя в клиенте вместо старого, при этом указать клиенту путь в старую папку куда и должно происходить скачивание новых выпусков.
Ваш клиент при этом должен произвести хеширование (проверку) старой папки (если не производит сам - помогите ему сделать это). В результате он будет докачивать только те выпуски, которых у Вас ещё нет. Старые выпуски при этом не удаляются, а продолжают раздаваться!
Eсли Вы уже удалили старые выпуски, то предотвратить их повторную закачку можно, сняв галочки в соответствующих местах при запуске нового торрента. По возможности, желательно не удалять старые выпуски как можно дольше, чтобы релизёр не только продолжал раздавать старые выпуски, но и смог сконцентрироваться на новых.
качество: SATRip
формат: AVI
Видео: 704х400 (16:9), 25,000 кадров/сек, XviD, ~1800 Кбит/сек
Аудио: 48,0 КГц, MP3, 2 ch, ~128 Кбит/сек
Дикий тунец: Вперёд за рыбой!
Атмосфера соревнования накаляется, и капитаны готовы на всё, чтобы получить преимущество и поймать неуловимого и ценного синеперого тунца.

Код: Выделить всё

Общее
Полное имя                               : G:\Дикий тунец Вперёд за рыбой.avi
Формат                                   : AVI
Формат/Информация                        : Audio Video Interleave
Размер файла                             : 561 Мбайт
Продолжительность                        : 40 м.
Общий поток                              : 1937 Кбит/сек
Библиотека кодирования                   : VirtualDub build 30009/release
Видео
Идентификатор                            : 0
Формат                                   : MPEG-4 Visual
Профиль формата                          : Advanced Simple@L3
Параметр BVOP формата                    : 2
Параметр QPel формата                    : Нет
Параметр GMC формата                     : Без точки перехода
Параметр матрицы формата                 : Default (H.263)
Идентификатор кодека                     : XVID
Идентификатор кодека/Подсказка           : XviD
Продолжительность                        : 40 м.
Битрейт                                  : 1799 Кбит/сек
Ширина                                   : 704 пикселя
Высота                                   : 400 пикселей
Соотношение сторон                       : 16:9
Частота кадров                           : 25,000 кадров/сек
Цветовое пространство                    : YUV
Субдискретизация насыщенности            : 4:2:0
Битовая глубина                          : 8 бит
Тип развёртки                            : Прогрессивная
Метод сжатия                             : С потерями
Бит/(Пиксели*Кадры)                      : 0.256
Размер потока                            : 521 Мбайт (93%)
Библиотека кодирования                   : XviD 58
Аудио
Идентификатор                            : 1
Формат                                   : MPEG Audio
Версия формата                           : Version 1
Профиль формата                          : Layer 3
Режим                                    : Joint stereo
Расширение режима                        : MS Stereo
Идентификатор кодека                     : 55
Идентификатор кодека/Подсказка           : MP3
Продолжительность                        : 40 м.
Вид битрейта                             : Постоянный
Битрейт                                  : 128 Кбит/сек
Каналы                                   : 2 канала
Частота                                  : 48,0 КГц
Метод сжатия                             : С потерями
Размер потока                            : 37,1 Мбайт (7%)
Выравнивание                             : Разделение по промежуткам
Продолжительность промежутка             : 40  мс. (1,00 видеокадр)
Время предзагрузки промежутка            : 500  мс.
У вас нет необходимых прав для просмотра вложений в этом сообщении.