Суперсооружения: Новая ж/д магистраль в Англии / Megastructures: UK Super Train [2010, Документальный, AVC-SATRip] Natio

Научно-популярные фильмы Национального географического общества
Торрент Сидеров Личеров Размер
torrent_4635812.torrent
0 0 744.06 МБ
Аватара пользователя
Солнышко
Сообщения: 22944
Зарегистрирован: 13 янв 2016, 22:10

Суперсооружения: Новая ж/д магистраль в Англии / Megastructures: UK Super Train [2010, Документальный, AVC-SATRip] Natio

Сообщение Солнышко » 22 мар 2018, 21:52

Суперсооружения: Новая ж/д магистраль в Англии
Год выпуска: 2010
Страна: США
Жанр: Документальный
Продолжительность: 00:46:56
Перевод: Профессиональный (одноголосый)
Русские субтитры: нет
Описание: Знакомьтесь: высокоскоростная линия №1 - самый дорогостоящий и самый крупный строительный проект в Великобритании!
Сэмпл: http://multi-up.com/938124
Качество: SATRip
Формат: MKV
Видео: AVC, 528x424@754x424, 25.00fps, 2022kbps
Аудио: MP2, 48kHz, stereo, 192kbps
General
Unique ID : 187789652099834816303483574219719041822 (0x8D46F8AF255552B7A1DA125ACC3FE31E)
Complete name : E:\Новая жд магистраль в Англии.mkv
Format : Matroska
Format version : Version 2
File size : 744 MiB
Duration : 46mn 55s
Overall bit rate : 2 217 Kbps
Encoded date : UTC 2013-12-21 13:56:59
Writing application : mkvmerge v6.1.0 ('Old Devil') built on Mar 4 2013 09:10:42
Writing library : libebml v1.3.0 + libmatroska v1.4.0
Video
ID : 1
Format : AVC
Format/Info : Advanced Video Codec
Format profile : High@L4.1
Format settings, CABAC : Yes
Format settings, ReFrames : 7 frames
Codec ID : V_MPEG4/ISO/AVC
Duration : 46mn 55s
Bit rate : 2 022 Kbps
Width : 528 pixels
Height : 424 pixels
Display aspect ratio : 16:9
Frame rate : 25.000 fps
Color space : YUV
Chroma subsampling : 4:2:0
Bit depth : 8 bits
Scan type : Progressive
Bits/(Pixel*Frame) : 0.361
Stream size : 665 MiB (89%)
Writing library : x264 core 130 r2273 b3065e6
Encoding settings : cabac=1 / ref=7 / deblock=1:-2:-1 / analyse=0x3:0x133 / me=umh / subme=9 / psy=1 / psy_rd=1.00:0.10 / mixed_ref=1 / me_range=32 / chroma_me=1 / trellis=2 / 8x8dct=1 / cqm=0 / deadzone=21,11 / fast_pskip=0 / chroma_qp_offset=-3 / threads=6 / lookahead_threads=1 / sliced_threads=0 / nr=0 / decimate=1 / interlaced=0 / bluray_compat=0 / constrained_intra=0 / bframes=8 / b_pyramid=2 / b_adapt=0 / b_bias=0 / direct=3 / weightb=1 / open_gop=0 / weightp=2 / keyint=250 / keyint_min=25 / scenecut=40 / intra_refresh=0 / rc_lookahead=60 / rc=2pass / mbtree=1 / bitrate=2022 / ratetol=1.0 / qcomp=0.60 / qpmin=0 / qpmax=69 / qpstep=4 / cplxblur=20.0 / qblur=0.5 / ip_ratio=1.40 / aq=1:1.00
Audio
ID : 2
Format : MPEG Audio
Format version : Version 1
Format profile : Layer 2
Codec ID : A_MPEG/L2
Codec ID/Hint : MP2
Duration : 46mn 55s
Bit rate mode : Constant
Bit rate : 192 Kbps
Channel(s) : 2 channels
Sampling rate : 48.0 KHz
Compression mode : Lossy
Stream size : 64.4 MiB (9%)
У вас нет необходимых прав для просмотра вложений в этом сообщении.