Корабли-призраки Великих озер / Ghost Ships of the Great Lakes (Кирк Вулфингер) [2011, документальный, расследование, HD

Научно-популярные фильмы Национального географического общества
Торрент Сидеров Личеров Размер
torrent_4393810.torrent
0 0 592.57 МБ
Аватара пользователя
Солнышко
Сообщения: 22944
Зарегистрирован: 13 янв 2016, 22:10

Корабли-призраки Великих озер / Ghost Ships of the Great Lakes (Кирк Вулфингер) [2011, документальный, расследование, HD

Сообщение Солнышко » 22 мар 2018, 21:55

Корабли-призраки Великих озер / Ghost Ships of the Great Lakes
Год выпуска: 2011
Страна: США
Жанр: документальный, расследование
Продолжительность: 00:44:00
Перевод: Одноголосый закадровый
Русские субтитры: нет
Режиссер: Кирк Вулфингер
Описание: С Великими озерами всегда были связаны истории о судах-призраках. Десятки кораблей были потеряны среди штормов и бурь, так что любой моряк может с уверенностью сказать, что здешние воды опасны, подобно океану. Документальный фильм «Корабли-призраки Великих озер» приглашает зрителей вместе с его создателями отправиться по следам одной загадочной находки. Как найденный в холодных водах озера Верхнее человеческий череп может повлиять на раскрытие одного из самых волнующих секретов Великий озер? Историк и писатель Брендон Байлод вместе с командой дайверов открывают тайны сразу двух почти забытых кораблекрушений. Поиски героев фильма «Корабли-призраки Великих озер» приводят нас также к жизни смелой и упрямой женщины, которая умерла в этих холодных водах. Стал ли этот факт проклятием здешних вод, или есть более земное объяснение тому, что Великие озера получили репутацию кладбища кораблей?

качество: HDTVRip
формат: MKV
видеокодек: x264
аудиокодек: AC3
Видео: 1024x576 (16:9), 25.000 fps, AVC (x264), High@L4.1, 1650 kbps, 0.112 bit/pixel
Аудио: 48 kHz, AC3 Dolby Digital, 2 ch, 192 kbps avg
General
Unique ID : 234653461668274875653468030643611526137 (0xB0889CE2F54402CC9550C430D96A63F9)
Complete name : C:\Documents and Settings\Mersicc\Мои документы\Мои видеозаписи\Korabli-prizraki Velikih ozer.2011.x264.HDTVRip-AVC.mkv
Format : Matroska
Format version : Version 2
File size : 593 MiB
Duration : 44mn 56s
Overall bit rate : 1 844 Kbps
Encoded date : UTC 2013-03-17 00:30:11
Writing application : mkvmerge v5.8.0 ('No Sleep / Pillow') built on Sep 2 2012 15:37:04
Writing library : libebml v1.2.3 + libmatroska v1.3.0
Video
ID : 1
Format : AVC
Format/Info : Advanced Video Codec
Format profile : High@L4.1
Format settings, CABAC : Yes
Format settings, ReFrames : 5 frames
Codec ID : V_MPEG4/ISO/AVC
Duration : 44mn 56s
Bit rate : 1 650 Kbps
Width : 1 024 pixels
Height : 576 pixels
Display aspect ratio : 16:9
Frame rate mode : Constant
Frame rate : 25.000 fps
Color space : YUV
Chroma subsampling : 4:2:0
Bit depth : 8 bits
Scan type : Progressive
Bits/(Pixel*Frame) : 0.112
Stream size : 519 MiB (88%)
Writing library : x264 core 125 r2208 d9d2288
Encoding settings : cabac=1 / ref=5 / deblock=1:-2:-2 / analyse=0x3:0x111 / me=umh / subme=9 / psy=1 / psy_rd=0.00:0.10 / mixed_ref=1 / me_range=32 / chroma_me=1 / trellis=2 / 8x8dct=1 / cqm=0 / deadzone=21,11 / fast_pskip=0 / chroma_qp_offset=-1 / threads=3 / lookahead_threads=1 / sliced_threads=0 / nr=0 / decimate=1 / interlaced=0 / bluray_compat=0 / constrained_intra=0 / bframes=5 / b_pyramid=2 / b_adapt=0 / b_bias=0 / direct=1 / weightb=1 / open_gop=0 / weightp=2 / keyint=250 / keyint_min=25 / scenecut=40 / intra_refresh=0 / rc_lookahead=50 / rc=2pass / mbtree=1 / bitrate=1650 / ratetol=1.0 / qcomp=0.60 / qpmin=0 / qpmax=69 / qpstep=4 / cplxblur=20.0 / qblur=0.5 / ip_ratio=1.40 / aq=1:1.00
Default : Yes
Forced : No
Audio
ID : 2
Format : AC-3
Format/Info : Audio Coding 3
Mode extension : CM (complete main)
Format settings, Endianness : Big
Codec ID : A_AC3
Duration : 44mn 56s
Bit rate mode : Constant
Bit rate : 192 Kbps
Channel(s) : 2 channels
Channel positions : Front: L R
Sampling rate : 48.0 KHz
Bit depth : 16 bits
Compression mode : Lossy
Stream size : 61.7 MiB (10%)
Language : Russian
Default : Yes
Forced : No
У вас нет необходимых прав для просмотра вложений в этом сообщении.