Убийство Иисуса / Killing Jesus (Кристофер Менол / Christopher Menaul) [2015, Исторический фильм, Религия, Реконструкция, HDTVRip]

Научно-популярные фильмы Национального географического общества
Торрент Сидеров Личеров Размер
torrent_4983139.torrent
0 0 753.91 МБ
Аватара пользователя
Солнышко
Сообщения: 22944
Зарегистрирован: 13 янв 2016, 22:10

Убийство Иисуса / Killing Jesus (Кристофер Менол / Christopher Menaul) [2015, Исторический фильм, Религия, Реконструкция, HDTVRip]

Сообщение Солнышко » 22 мар 2018, 21:56

Убийство Иисуса / Killing Jesus
Страна: США
Жанр: Исторический фильм, Религия, Реконструкция
Год выпуска: 2015
Продолжительность:02:05:00
Перевод: Профессиональный (одноголосый, закадровый) - National Geographic Россия
Оригинальная аудиодорожка: нет
Субтитры: нет
Режиссер: Кристофер Менол / Christopher Menaul
Описание:История Иисуса - скромного плотника из Назарета, дала начало одной из величайших религий мира, на сегодняшний день насчитывается более двух миллиардов христиан. Почти 2000 лет спустя после того, как римские солдаты жестоко убили этого неоднозначно принятого бунтаря, более 2,2 млрд. людей следуют его учению и верят, что он был Богом. Эта новая программа переносит зрителей в мир Иисуса, подробно рассказывая о его жизни и бурных исторических событиях, которые привели к Его неизбежной гибели и навсегда изменили мир, а также о политических, социальных и исторических конфликтах в Римской Империи. Однако основной акцент в фильме сделан на том, как Христос основал церковь. После Христа осталось несколько верных ему учеников - апостолов, которые и принесли новую веру в мир. Согласно ранним источникам, Петр отправился с учением Иисуса в Рим, где провозгласил рождение христианства, римляне приговорили его к смерти. Утверждается, что он потребовал распять себя на перевернутом кресте, чтобы смерть его не была похожа на смерть Иисуса, римляне исполнили эту просьбу. По тем же источникам Иаков проповедовал о Христе в Иерусалиме, за оскорбление первосвященников он был забит камнями. Судьба других учеников описана в легендах и апокрифах, принято считать, что все они, кроме Иоанна, были замучены и убиты.

Качество: HDTVRip
Контейнер: AVI
Видео: 688x384 (1.79:1), 25 fps, XviD build 73 ~700 kbps avg, 0.11 bit/pixel
Аудио: 48 kHz, MPEG Layer 3, 2 ch, ~128.00 kbps avg
Общее
Полное имя : C:\Users\Вячеслав\Downloads\Убийство_Иисуса_HDTVRip_Некул .avi
Формат : AVI
Формат/Информация : Audio Video Interleave
Размер файла : 754 Мбайт
Продолжительность : 2 ч. 5 м.
Общий поток : 842 Кбит/сек
Дата записи : -1
Программа кодирования : XviD4PSP 7.0 / 55.48.100
Примечание : MATROSKA,WEBM > AVI / H264 > XVID CBR 701kbps HQ / AC3 > MP3 CBR 128kbps HQ
Видео
Идентификатор : 0
Формат : MPEG-4 Visual
Профиль формата : Advanced Simple@L5
Параметр BVOP формата : 1
Параметр QPel формата : Нет
Параметр GMC формата : Без точки перехода
Параметр матрицы формата : Default (H.263)
Идентификатор кодека : XVID
Идентификатор кодека/Подсказка : XviD
Продолжительность : 2 ч. 5 м.
Битрейт : 701 Кбит/сек
Ширина : 688 пикселей
Высота : 384 пикселя
Соотношение сторон : 16:9
Частота кадров : 25,000 кадров/сек
Цветовое пространство : YUV
Субдискретизация насыщенности : 4:2:0
Битовая глубина : 8 бит
Тип развёртки : Прогрессивная
Метод сжатия : С потерями
Бит/(Пиксели*Кадры) : 0.106
Размер потока : 628 Мбайт (83%)
Библиотека кодирования : XviD 73
Аудио
Идентификатор : 1
Формат : MPEG Audio
Версия формата : Version 1
Профиль формата : Layer 3
Режим : Joint stereo
Расширение режима : MS Stereo
Идентификатор кодека : 55
Идентификатор кодека/Подсказка : MP3
Продолжительность : 2 ч. 5 м.
Вид битрейта : Постоянный
Битрейт : 128 Кбит/сек
Каналы : 2 канала
Частота : 48,0 КГц
Метод сжатия : С потерями
Размер потока : 115 Мбайт (15%)
Выравнивание : Соединение по промежуткам
Продолжительность промежутка : 24 мс. (0,60 видеокадр)
Время предзагрузки промежутка : 24 мс.
Библиотека кодирования : LAME3.99.5UUUUUUU€?Ф
У вас нет необходимых прав для просмотра вложений в этом сообщении.