National Geographic : Путь к забытой реке / National Geographic : Journey to the forgotten River [1990, Научно-популярный, DVDRip]

Научно-популярные фильмы Национального географического общества
Торрент Сидеров Личеров Размер
torrent_4931803.torrent
0 0 618.49 МБ
Аватара пользователя
Солнышко
Сообщения: 22944
Зарегистрирован: 13 янв 2016, 22:10

National Geographic : Путь к забытой реке / National Geographic : Journey to the forgotten River [1990, Научно-популярный, DVDRip]

Сообщение Солнышко » 22 мар 2018, 21:56

National Geographic : Путь к забытой реке / National Geographic : Journey to the forgotten River
Дата/Год выпуска: 1990
Страна: США
Жанр: Научно-популярный
Продолжительность: 00:54:56
Перевод: Студийный (одноголосый закадровый)
Доп. инфо о переводе: (Ю.Сербин)
Описание: Рассказ о животных Африки
качество: DVDRip
формат: AVI
Видео: Video: 640x480 (1.33:1), 25 fps, XviD build 50 ~1999 kbps avg, 0.26 bit/pixe
Аудио: Audio: 44.100 kHz, MPEG Layer 3, 2 ch, ~128.00 kbps avg

Код: Выделить всё

General
Complete name                            : H:\1\NG  Путь к забытой реке.avi
Format                                   : AVI
Format/Info                              : Audio Video Interleave
File size                                : 618 MiB
Duration                                 : 54mn 34s
Overall bit rate                         : 1 585 Kbps
Writing application                      : Lavf52.57.1
Video
ID                                       : 0
Format                                   : MPEG-4 Visual
Codec ID                                 : FMP4
Duration                                 : 54mn 34s
Bit rate                                 : 1 444 Kbps
Width                                    : 640 pixels
Height                                   : 480 pixels
Display aspect ratio                     : 4:3
Frame rate                               : 25.000 fps
Color space                              : YUV
Chroma subsampling                       : 4:2:0
Compression mode                         : Lossy
Bits/(Pixel*Frame)                       : 0.188
Stream size                              : 563 MiB (91%)
Audio
ID                                       : 1
Format                                   : MPEG Audio
Format version                           : Version 1
Format profile                           : Layer 3
Mode                                     : Joint stereo
Mode extension                           : MS Stereo
Codec ID                                 : 55
Codec ID/Hint                            : MP3
Duration                                 : 54mn 33s
Bit rate mode                            : Constant
Bit rate                                 : 128 Kbps
Channel(s)                               : 2 channels
Sampling rate                            : 48.0 KHz
Compression mode                         : Lossy
Stream size                              : 50.0 MiB (8%)
Alignment                                : Aligned on interleaves
Interleave, duration                     : 24 ms (0.60 video frame)
Writing library                          : LAME3.98.2








http:// СПАМ
У вас нет необходимых прав для просмотра вложений в этом сообщении.