National Geographic : Африка-Голоса леса / National Geographic : Africa-Voices of the Forest [2001, Научно-популярный, DVDRip]

Научно-популярные фильмы Национального географического общества
Торрент Сидеров Личеров Размер
torrent_4805623.torrent
0 0 822.91 МБ
Аватара пользователя
Солнышко
Сообщения: 22944
Зарегистрирован: 13 янв 2016, 22:10

National Geographic : Африка-Голоса леса / National Geographic : Africa-Voices of the Forest [2001, Научно-популярный, DVDRip]

Сообщение Солнышко » 22 мар 2018, 21:56

National Geographic : Африка-Голоса леса / National Geographic : Africa-Voices of the Forest
Дата/Год выпуска: 2001
Страна: США
Жанр: Научно-популярный
Продолжительность: 00:58:49
Перевод: Студийный (одноголосый закадровый) (Ю.Сербин)
Русские субтитры: нет
Описание: Рассказ о быте африканцев из разных стран Африки ,а также природа
качество: DVDRip
формат: AVI
Видео: Video: 640x480 (1.33:1), 25 fps, XviD build 50 ~1999 kbps avg, 0.26 bit/pixe
Аудио: Audio: 44.100 kHz, MPEG Layer 3, 2 ch, ~128.00 kbps avg

Код: Выделить всё

General
Complete name                            : H:\NG Африка -Голоса леса.avi
Format                                   : AVI
Format/Info                              : Audio Video Interleave
File size                                : 823 MiB
Duration                                 : 53mn 49s
Overall bit rate                         : 2 138 Kbps
Writing application                      : Lavf52.57.1
Video
ID                                       : 0
Format                                   : xvid
Codec ID                                 : xvid
Duration                                 : 53mn 49s
Bit rate                                 : 1 997 Kbps
Width                                    : 640 pixels
Height                                   : 480 pixels
Display aspect ratio                     : 4:3
Frame rate                               : 25.000 fps
Bits/(Pixel*Frame)                       : 0.260
Stream size                              : 769 MiB (93%)
Audio
ID                                       : 1
Format                                   : MPEG Audio
Format version                           : Version 1
Format profile                           : Layer 3
Mode                                     : Joint stereo
Mode extension                           : MS Stereo
Codec ID                                 : 55
Codec ID/Hint                            : MP3
Duration                                 : 53mn 49s
Bit rate mode                            : Constant
Bit rate                                 : 128 Kbps
Channel(s)                               : 2 channels
Sampling rate                            : 44.1 KHz
Compression mode                         : Lossy
Stream size                              : 49.3 MiB (6%)
Alignment                                : Aligned on interleaves
Interleave, duration                     : 26 ms (0.65 video frame)
Writing library                          : LAME3.98.2ЄЄЄЄЄЄЄЄЄЄ








http:// СПАМ
У вас нет необходимых прав для просмотра вложений в этом сообщении.