National Geographic : Дикие просторы Мадагаскара / National Geographic : Wilds of Madagascar [1989, Научно-популярный, DVDRip]

Научно-популярные фильмы Национального географического общества
Торрент Сидеров Личеров Размер
torrent_4696796.torrent
0 0 797.13 МБ
Аватара пользователя
Солнышко
Сообщения: 22944
Зарегистрирован: 13 янв 2016, 22:10

National Geographic : Дикие просторы Мадагаскара / National Geographic : Wilds of Madagascar [1989, Научно-популярный, DVDRip]

Сообщение Солнышко » 22 мар 2018, 21:56

National Geographic : Дикие просторы Мадагаскара / National Geographic : Wilds of Madagascar
Дата/Год выпуска: 1989
Страна: США
Жанр: Научно-популярный
Продолжительность: 00:52:08
Перевод: Студийный (одноголосый закадровый)
Доп. инфо о переводе: (Ю.Сербин)
Русские субтитры: нет
Оригинальная аудиодорожка: нет
Описание: Рассказ о уникальное природе Мадагаскара
качество: DVDRip
формат: AVI
Видео: Video: 640x480 (1.33:1), 25 fps, XviD build 50 ~1999 kbps avg, 0.26 bit/pixe
Аудио: Audio: 44.100 kHz, MPEG Layer 3, 2 ch, ~128.00 kbps avg

Код: Выделить всё

General
Complete name                            : H:\NG Дикие просторы Мадагаскара.avi
Format                                   : AVI
Format/Info                              : Audio Video Interleave
File size                                : 797 MiB
Duration                                 : 52mn 8s
Overall bit rate                         : 2 138 Kbps
Writing application                      : Lavf52.57.1
Video
ID                                       : 0
Format                                   : xvid
Codec ID                                 : xvid
Duration                                 : 52mn 8s
Bit rate                                 : 1 997 Kbps
Width                                    : 640 pixels
Height                                   : 480 pixels
Display aspect ratio                     : 4:3
Frame rate                               : 25.000 fps
Bits/(Pixel*Frame)                       : 0.260
Stream size                              : 745 MiB (93%)
Audio
ID                                       : 1
Format                                   : MPEG Audio
Format version                           : Version 1
Format profile                           : Layer 3
Mode                                     : Joint stereo
Mode extension                           : MS Stereo
Codec ID                                 : 55
Codec ID/Hint                            : MP3
Duration                                 : 52mn 8s
Bit rate mode                            : Constant
Bit rate                                 : 128 Kbps
Channel(s)                               : 2 channels
Sampling rate                            : 44.1 KHz
Compression mode                         : Lossy
Stream size                              : 47.7 MiB (6%)
Alignment                                : Aligned on interleaves
Interleave, duration                     : 26 ms (0.65 video frame)








Сэмпл http:// СПАМ
У вас нет необходимых прав для просмотра вложений в этом сообщении.