National Geographic : Акулы-людоеды / National Geographic : The Fox and the Sharks [1995, Научно-популярный, DVDRip]

Научно-популярные фильмы Национального географического общества
Торрент Сидеров Личеров Размер
torrent_4608932.torrent
0 0 609.21 МБ
Аватара пользователя
Солнышко
Сообщения: 22944
Зарегистрирован: 13 янв 2016, 22:10

National Geographic : Акулы-людоеды / National Geographic : The Fox and the Sharks [1995, Научно-популярный, DVDRip]

Сообщение Солнышко » 22 мар 2018, 21:57

National Geographic : Акулы-людоеды / National Geographic : The Fox and the Sharks
Год выпуска: 1995
Страна: США
Жанр: Научно-популярный
Продолжительность: 00:51:57
Перевод: Студийный (одноголосый закадровый) (Ю.Сербин)
Русские субтитры: нет
Описание: Рассказ о о самых опасных акулах , и их нападениях на человека
качество: DVDRip
формат: AVI
Видео: Video: 640x480 (1.33:1), 25 fps, XviD build 50 ~1999 kbps avg, 0.26 bit/pixe
Аудио: Audio: 44.100 kHz, MPEG Layer 3, 2 ch, ~128.00 kbps avg
General
Complete name : H:\NG Акулы-людоеды.avi
Format : AVI
Format/Info : Audio Video Interleave
File size : 609 MiB
Duration : 51mn 57s
Overall bit rate : 1 639 Kbps
Writing application : Lavf52.57.1
Video
ID : 0
Format : xvid
Codec ID : xvid
Duration : 51mn 57s
Bit rate : 1 499 Kbps
Width : 640 pixels
Height : 480 pixels
Display aspect ratio : 4:3
Frame rate : 25.000 fps
Bits/(Pixel*Frame) : 0.195
Stream size : 557 MiB (91%)
Audio
ID : 1
Format : MPEG Audio
Format version : Version 1
Format profile : Layer 3
Mode : Joint stereo
Mode extension : MS Stereo
Codec ID : 55
Codec ID/Hint : MP3
Duration : 51mn 56s
Bit rate mode : Constant
Bit rate : 128 Kbps
Channel(s) : 2 channels
Sampling rate : 44.1 KHz
Compression mode : Lossy
Stream size : 47.6 MiB (8%)
Alignment : Aligned on interleaves
Interleave, duration : 26 ms (0.65 video frame)
Writing library : LAME3.98.2ЄЄЄЄЄЄЄЄЄЄ









Сэмпл http:// СПАМ
У вас нет необходимых прав для просмотра вложений в этом сообщении.