Медвежий кочевник. Белые медведи / Bear Nomad. Polar Bears / Сезон 1 / Серия 3 / (Билли МакМиллен) [2011, Документальный, SATRip] National Geographic

Научно-популярные фильмы Национального географического общества
Торрент Сидеров Личеров Размер
torrent_4096931.torrent
0 0 543.98 МБ
Аватара пользователя
Солнышко
Сообщения: 22944
Зарегистрирован: 13 янв 2016, 22:10

Медвежий кочевник. Белые медведи / Bear Nomad. Polar Bears / Сезон 1 / Серия 3 / (Билли МакМиллен) [2011, Документальный, SATRip] National Geographic

Сообщение Солнышко » 22 мар 2018, 21:58

Медвежий кочевник. Белые медведи / Bear Nomad. Polar Bears

Год выпуска: 2011
Жанр: Документальный
Продолжительность: 00:44:56
Перевод: Профессиональный (одноголосый)
Режиссер: Билли МакМиллен
Кодеки: XviD, MP3
Параметры видео: 720x400 (16:9), 25 fps, 1564 kbps
Параметры аудио: 48 kHz, 2ch, 128 kbps
Описание:В каждой культуре встреча с медведем производит на человека неизгладимое впечатление. Он символ мудрости, силы и коварства. Но несмотря на их значительное количество шесть из восьми видов медведя находятся под угрозой исчезновения. Крис со своей командой путешествуют среди арктических льдов по следам исчезающих полярных медведей. Их общая цель сбросить покров тайны и неверного представления об этих созданиях, чтобы лучше понять их нрав, стать очевидцами их жизни сегодня и того, что может ожидать их в будущем. Он показывает нам более нежную сторону этого мощного хищника.
Сэмпл: скачать

General
Format : AVI
Format/Info : Audio Video Interleave
File size : 544 MiB
Duration : 44mn 56s
Overall bit rate : 1 693 Kbps
Writing application : VirtualDubMod 1.5.10.2 (build 2540/release)
Writing library : VirtualDubMod build 2540/release
Video #0
ID : 0
Format : MPEG-4 Visual
Format profile : Advanced Simple@L5
Format settings, BVOP : 1
Format settings, QPel : No
Format settings, GMC : No warppoints
Format settings, Matrix : Default (H.263)
Codec ID : XVID
Codec ID/Hint : XviD
Duration : 44mn 56s
Bit rate : 1 555 Kbps
Width : 720 pixels
Height : 400 pixels
Display aspect ratio : 16:9
Frame rate : 25.000 fps
Color space : YUV
Chroma subsampling : 4:2:0
Bit depth : 8 bits
Scan type : Progressive
Compression mode : Lossy
Bits/(Pixel*Frame) : 0.216
Stream size : 500 MiB (92%)
Writing library : XviD 1.2.0.dev47 (UTC 2006-11-01)
Audio #1
ID : 1
Format : MPEG Audio
Format version : Version 1
Format profile : Layer 3
Codec ID : 55
Codec ID/Hint : MP3
Duration : 44mn 56s
Bit rate mode : Constant
Bit rate : 128 Kbps
Channel(s) : 2 channels
Sampling rate : 48.0 KHz
Compression mode : Lossy
Stream size : 41.1 MiB (8%)
Alignment : Aligned on interleaves
Interleave, duration : 40 ms (1.00 video frame)
Interleave, preload duration : 504 ms
Writing library : LAME3.97
Encoding settings : -m s -V 4 -q 2 -lowpass 17 -b 128
У вас нет необходимых прав для просмотра вложений в этом сообщении.