Кейси и Брут: в мире медведей / Expedition Wild With Casey Anderson (Кейси Андерсон / Casey Anderson) (1 - 7 серии из 7) [2010, Документальный, научно-популярный, экстрим, SATRip]

Научно-популярные фильмы Национального географического общества
Торрент Сидеров Личеров Размер
torrent_3858786.torrent
0 0 4.5 ГБ
Аватара пользователя
Солнышко
Сообщения: 22944
Зарегистрирован: 13 янв 2016, 22:10

Кейси и Брут: в мире медведей / Expedition Wild With Casey Anderson (Кейси Андерсон / Casey Anderson) (1 - 7 серии из 7) [2010, Документальный, научно-популярный, экстрим, SATRip]

Сообщение Солнышко » 22 мар 2018, 21:58

Кейси и Брут: в мире медведей / Expedition Wild With Casey Anderson
Год выпуска: 2010
Страна: США, National Geographic Channel
Жанр: Документальный, научно-популярный, экстрим
Продолжительность: 7 х ~ 00:46:30
Перевод: Профессиональный (полное дублирование)
Русские субтитры: нет
Режиссер: Кейси Андерсон / Casey Anderson
Описание: Документальный сериал "Кейси и Брут: в мире медведей" рассказывает об уникальном исследователе Кейси Андерсоне, посвятившем свою жизнь изучению поведения диких животных в естественной среде обитания. Кейси понимает каждое движение медведя гризли, его отношения с этими животными вызывают большой интерес и восхищение. Зрителей особенно удивит нежная и трогательная дружба Кейси с медведем, по кличке Брут. Вы сможете наблюдать, как он плавает в пруду, и принять участие в праздновании его дня рождения! Присоединяйтесь к Кейси в его 60-ти километровом путешествии по зимнему Йеллоустоунскому заповеднику, в поисках следов неуловимых горных львов и диких медведей гризли, которые отчаянно ведут охоту, чтобы обеспечить себе пропитание на время спячки.

Список серий:
1 серия. Экспедиция "Кодиак" / Expedition Kodiak
2 серия. Зима в Йеллоустоуне / Yellowstone winter
3 серия. Взросление гризли / Grizzly encounters
4 серия. Экспедиция Гризли / Expedition Grizzly
5 серия. Весна в Йеллоустоуне / Yellowstone spring
6 серия. Волчья стая / Inside the wolf pack
7 серия. Когда атакуют гризли / Inside a grizzly attack

Доп. информация: Перевод - Студия дубляжа АРК·ТВ
Релиз от BiNMoViE
Качество: SATRip
Формат: AVI
Видео кодек: XviD
Аудио кодек: MP3
Видео: 720x432 (1.67:1), 25 fps, XviD build 50 ~1957 kbps avg, 0.25 bit/pixel
Аудио: 48 kHz, MPEG Layer 3, 1 ch, ~128.00 kbps avg
Общее
Полное имя : G:\Закачки торент\Роздачі\N.G. Кейси и Брут в мире медведей.(7.serii.iz.7).2010.XviD.SATRip\N.G. Кейси и Брут в мире медведей.(1.seriya.iz.7).2010.XviD.SATRip.avi
Формат : AVI
Формат/Информация : Audio Video Interleave
Профиль формата : OpenDML
Настройки формата : rec
Размер файла : 700 Мбайт
Продолжительность : 46 м.
Общий поток : 2086 Кбит/сек
Программа кодирования : AVI-Mux GUI 1.17.8.3, Feb 16 201019:42:50
Видео
Идентификатор : 0
Формат : MPEG-4 Visual
Профиль формата : Advanced Simple@L5
Параметр BVOP формата : 2
Параметр QPel формата : Нет
Параметр GMC формата : Без точки перехода
Параметр матрицы формата : Default (MPEG)
Идентификатор кодека : XVID
Идентификатор кодека/Подсказка : XviD
Продолжительность : 46 м.
Битрейт : 1954 Кбит/сек
Ширина : 720 пикселей
Высота : 432 пикселя
Соотношение сторон : 1,667
Частота кадров : 25,000 кадров/сек
Цветовое пространство : YUV
Субдискретизация насыщенности : 4:2:0
Битовая глубина : 8 бит
Тип развёртки : Прогрессивная
Метод сжатия : С потерями
Бит/(Пиксели*Кадры) : 0.251
Размер потока : 656 Мбайт (94%)
Библиотека кодирования : XviD 1.2.1 (UTC 2008-12-04)
Аудио
Идентификатор : 1
Формат : MPEG Audio
Версия формата : Version 1
Профиль формата : Layer 3
Идентификатор кодека : 55
Идентификатор кодека/Подсказка : MP3
Продолжительность : 46 м.
Вид битрейта : Постоянный
Битрейт : 128 Кбит/сек
Каналы : 1 канал
Частота : 48,0 КГц
Метод сжатия : С потерями
Размер потока : 42,9 Мбайт (6%)
Выравнивание : Соединение по промежуткам
Продолжительность промежутка : 422 мс. (10,56 видеокадров)
Время предзагрузки промежутка : 216 мс.
Заголовок : expidition_wild_expedition_kodiak - National Geografic Wild-20101011-035503 Tc0 L2 mono 48 96 DELAY 0ms
Библиотека кодирования : LAME3.98r
Настройки программы : -m m -V 4 -q 2 -lowpass 20.5 -b 128
Общее
Полное имя : G:\Закачки торент\Роздачі\N.G. Кейси и Брут в мире медведей.(7.serii.iz.7).2010.XviD.SATRip\N.G. Кейси и Брут в мире медведей.(2.seriya.iz.7).2010.XviD.SATRip.avi
Формат : AVI
Формат/Информация : Audio Video Interleave
Профиль формата : OpenDML
Настройки формата : rec
Размер файла : 701 Мбайт
Продолжительность : 46 м.
Общий поток : 2092 Кбит/сек
Программа кодирования : AVI-Mux GUI 1.17.8.3, Feb 16 201019:42:50
Видео
Идентификатор : 0
Формат : MPEG-4 Visual
Профиль формата : Advanced Simple@L5
Параметр BVOP формата : 2
Параметр QPel формата : Нет
Параметр GMC формата : Без точки перехода
Параметр матрицы формата : Default (MPEG)
Идентификатор кодека : XVID
Идентификатор кодека/Подсказка : XviD
Продолжительность : 46 м.
Битрейт : 1960 Кбит/сек
Ширина : 720 пикселей
Высота : 432 пикселя
Соотношение сторон : 1,667
Частота кадров : 25,000 кадров/сек
Цветовое пространство : YUV
Субдискретизация насыщенности : 4:2:0
Битовая глубина : 8 бит
Тип развёртки : Прогрессивная
Метод сжатия : С потерями
Бит/(Пиксели*Кадры) : 0.252
Размер потока : 656 Мбайт (94%)
Библиотека кодирования : XviD 1.2.1 (UTC 2008-12-04)
Аудио
Идентификатор : 1
Формат : MPEG Audio
Версия формата : Version 1
Профиль формата : Layer 3
Идентификатор кодека : 55
Идентификатор кодека/Подсказка : MP3
Продолжительность : 46 м.
Вид битрейта : Постоянный
Битрейт : 128 Кбит/сек
Каналы : 1 канал
Частота : 48,0 КГц
Метод сжатия : С потерями
Размер потока : 42,9 Мбайт (6%)
Выравнивание : Соединение по промежуткам
Продолжительность промежутка : 426 мс. (10,64 видеокадров)
Время предзагрузки промежутка : 216 мс.
Заголовок : expidition_wild_2 - National Geografic Wild-20101018-035501 Tc0 L2 mono 48 96 DELAY 0ms
Библиотека кодирования : LAME3.98r
Настройки программы : -m m -V 4 -q 2 -lowpass 20.5 -b 128
Общее
Полное имя : G:\Закачки торент\Роздачі\N.G. Кейси и Брут в мире медведей.(7.serii.iz.7).2010.XviD.SATRip\N.G. Кейси и Брут в мире медведей.(3.seriya.iz.7).2010.XviD.SATRip.avi
Формат : AVI
Формат/Информация : Audio Video Interleave
Профиль формата : OpenDML
Настройки формата : rec
Размер файла : 701 Мбайт
Продолжительность : 46 м.
Общий поток : 2093 Кбит/сек
Программа кодирования : AVI-Mux GUI 1.17.8.3, Feb 16 201019:42:50
Видео
Идентификатор : 0
Формат : MPEG-4 Visual
Профиль формата : Advanced Simple@L5
Параметр BVOP формата : 2
Параметр QPel формата : Нет
Параметр GMC формата : Без точки перехода
Параметр матрицы формата : Default (MPEG)
Идентификатор кодека : XVID
Идентификатор кодека/Подсказка : XviD
Продолжительность : 46 м.
Битрейт : 1961 Кбит/сек
Ширина : 720 пикселей
Высота : 432 пикселя
Соотношение сторон : 1,667
Частота кадров : 25,000 кадров/сек
Цветовое пространство : YUV
Субдискретизация насыщенности : 4:2:0
Битовая глубина : 8 бит
Тип развёртки : Прогрессивная
Метод сжатия : С потерями
Бит/(Пиксели*Кадры) : 0.252
Размер потока : 656 Мбайт (94%)
Библиотека кодирования : XviD 1.2.1 (UTC 2008-12-04)
Аудио
Идентификатор : 1
Формат : MPEG Audio
Версия формата : Version 1
Профиль формата : Layer 3
Идентификатор кодека : 55
Идентификатор кодека/Подсказка : MP3
Продолжительность : 46 м.
Вид битрейта : Постоянный
Битрейт : 128 Кбит/сек
Каналы : 1 канал
Частота : 48,0 КГц
Метод сжатия : С потерями
Размер потока : 42,9 Мбайт (6%)
Выравнивание : Соединение по промежуткам
Продолжительность промежутка : 426 мс. (10,65 видеокадров)
Время предзагрузки промежутка : 216 мс.
Заголовок : expidition_wild_3 - National Geografic Wild-20101025-035508 Tc0 L2 mono 48 96 DELAY 0ms
Библиотека кодирования : LAME3.98r
Настройки программы : -m m -V 4 -q 2 -lowpass 20.5 -b 128
Общее
Полное имя : G:\Закачки торент\Роздачі\N.G. Кейси и Брут в мире медведей.(7.serii.iz.7).2010.XviD.SATRip\N.G. Кейси и Брут в мире медведей.(4.seriya.iz.7).2010.XviD.SATRip.avi
Формат : AVI
Формат/Информация : Audio Video Interleave
Профиль формата : OpenDML
Настройки формата : rec
Размер файла : 644 Мбайт
Продолжительность : 46 м.
Общий поток : 1932 Кбит/сек
Программа кодирования : AVI-Mux GUI 1.17.8.3, Feb 16 201019:42:50
Видео
Идентификатор : 0
Формат : MPEG-4 Visual
Профиль формата : Advanced Simple@L5
Параметр BVOP формата : 2
Параметр QPel формата : Нет
Параметр GMC формата : Без точки перехода
Параметр матрицы формата : Default (MPEG)
Идентификатор кодека : XVID
Идентификатор кодека/Подсказка : XviD
Продолжительность : 46 м.
Битрейт : 1800 Кбит/сек
Ширина : 720 пикселей
Высота : 432 пикселя
Соотношение сторон : 1,667
Частота кадров : 25,000 кадров/сек
Цветовое пространство : YUV
Субдискретизация насыщенности : 4:2:0
Битовая глубина : 8 бит
Тип развёртки : Прогрессивная
Метод сжатия : С потерями
Бит/(Пиксели*Кадры) : 0.231
Размер потока : 600 Мбайт (93%)
Библиотека кодирования : XviD 1.2.1 (UTC 2008-12-04)
Аудио
Идентификатор : 1
Формат : MPEG Audio
Версия формата : Version 1
Профиль формата : Layer 3
Идентификатор кодека : 55
Идентификатор кодека/Подсказка : MP3
Продолжительность : 46 м.
Вид битрейта : Постоянный
Битрейт : 128 Кбит/сек
Каналы : 1 канал
Частота : 48,0 КГц
Метод сжатия : С потерями
Размер потока : 42,7 Мбайт (7%)
Выравнивание : Соединение по промежуткам
Продолжительность промежутка : 461 мс. (11,52 видеокадров)
Время предзагрузки промежутка : 216 мс.
Заголовок : expidition_wild_4_expidittion_grizzli - National Geografic Wild-20101114-205513 Tc0 L2 mono 48 96 DELAY 0ms
Библиотека кодирования : LAME3.98r
Настройки программы : -m m -V 4 -q 2 -lowpass 20.5 -b 128
Общее
Полное имя : G:\Закачки торент\Роздачі\N.G. Кейси и Брут в мире медведей.(7.serii.iz.7).2010.XviD.SATRip\N.G. Кейси и Брут в мире медведей.(5.seriya.iz.7).2010.XviD.SATRip.avi
Формат : AVI
Формат/Информация : Audio Video Interleave
Размер файла : 620 Мбайт
Продолжительность : 44 м.
Общий поток : 1933 Кбит/сек
Видео
Идентификатор : 0
Формат : MPEG-4 Visual
Профиль формата : Advanced Simple@L5
Параметр BVOP формата : 2
Параметр QPel формата : Нет
Параметр GMC формата : Без точки перехода
Параметр матрицы формата : Default (MPEG)
Идентификатор кодека : XVID
Идентификатор кодека/Подсказка : XviD
Продолжительность : 44 м.
Битрейт : 1800 Кбит/сек
Ширина : 720 пикселей
Высота : 432 пикселя
Соотношение сторон : 1,667
Частота кадров : 25,000 кадров/сек
Цветовое пространство : YUV
Субдискретизация насыщенности : 4:2:0
Битовая глубина : 8 бит
Тип развёртки : Прогрессивная
Метод сжатия : С потерями
Бит/(Пиксели*Кадры) : 0.231
Размер потока : 578 Мбайт (93%)
Библиотека кодирования : XviD 1.2.1 (UTC 2008-12-04)
Аудио
Идентификатор : 1
Формат : MPEG Audio
Версия формата : Version 1
Профиль формата : Layer 3
Идентификатор кодека : 55
Идентификатор кодека/Подсказка : MP3
Продолжительность : 44 м.
Вид битрейта : Постоянный
Битрейт : 128 Кбит/сек
Каналы : 1 канал
Частота : 48,0 КГц
Метод сжатия : С потерями
Размер потока : 41,1 Мбайт (7%)
Выравнивание : Разделение по промежуткам
Продолжительность промежутка : 459 мс. (11,47 видеокадров)
Время предзагрузки промежутка : 200 мс.
Заголовок : expidition_wild_spring_Nat Geo Wild (rus)_08-09_17-55-01_ Tc0 L2 mono 48 96 DELAY 0ms
Библиотека кодирования : LAME3.98r
Настройки программы : -m m -V 4 -q 2 -lowpass 20.5 -b 128
Общее
Полное имя : G:\Закачки торент\Роздачі\N.G. Кейси и Брут в мире медведей.(7.serii.iz.7).2010.XviD.SATRip\N.G. Кейси и Брут в мире медведей.(6.seriya.iz.7).2010.XviD.SATRip.avi
Формат : AVI
Формат/Информация : Audio Video Interleave
Размер файла : 624 Мбайт
Продолжительность : 45 м.
Общий поток : 1933 Кбит/сек
Видео
Идентификатор : 0
Формат : MPEG-4 Visual
Профиль формата : Advanced Simple@L5
Параметр BVOP формата : 2
Параметр QPel формата : Нет
Параметр GMC формата : Без точки перехода
Параметр матрицы формата : Default (MPEG)
Идентификатор кодека : XVID
Идентификатор кодека/Подсказка : XviD
Продолжительность : 45 м.
Битрейт : 1800 Кбит/сек
Ширина : 720 пикселей
Высота : 432 пикселя
Соотношение сторон : 1,667
Частота кадров : 25,000 кадров/сек
Цветовое пространство : YUV
Субдискретизация насыщенности : 4:2:0
Битовая глубина : 8 бит
Тип развёртки : Прогрессивная
Метод сжатия : С потерями
Бит/(Пиксели*Кадры) : 0.231
Размер потока : 581 Мбайт (93%)
Библиотека кодирования : XviD 1.2.1 (UTC 2008-12-04)
Аудио
Идентификатор : 1
Формат : MPEG Audio
Версия формата : Version 1
Профиль формата : Layer 3
Идентификатор кодека : 55
Идентификатор кодека/Подсказка : MP3
Продолжительность : 45 м.
Вид битрейта : Постоянный
Битрейт : 128 Кбит/сек
Каналы : 1 канал
Частота : 48,0 КГц
Метод сжатия : С потерями
Размер потока : 41,3 Мбайт (7%)
Выравнивание : Разделение по промежуткам
Продолжительность промежутка : 462 мс. (11,56 видеокадров)
Время предзагрузки промежутка : 200 мс.
Заголовок : expedition_wild_5_inside_wolf_pack - National Geografic Wild-20110313-175504 Tc0 L2 mono 48 96 DELAY 0ms
Библиотека кодирования : LAME3.98r
Настройки программы : -m m -V 4 -q 2 -lowpass 20.5 -b 128
Общее
Полное имя : G:\Закачки торент\Роздачі\N.G. Кейси и Брут в мире медведей.(7.serii.iz.7).2010.XviD.SATRip\N.G. Кейси и Брут в мире медведей.(7.seriya.iz.7).2010.XviD.SATRip.avi
Формат : AVI
Формат/Информация : Audio Video Interleave
Размер файла : 623 Мбайт
Продолжительность : 45 м.
Общий поток : 1933 Кбит/сек
Видео
Идентификатор : 0
Формат : MPEG-4 Visual
Профиль формата : Advanced Simple@L5
Параметр BVOP формата : 2
Параметр QPel формата : Нет
Параметр GMC формата : Без точки перехода
Параметр матрицы формата : Default (MPEG)
Идентификатор кодека : XVID
Идентификатор кодека/Подсказка : XviD
Продолжительность : 45 м.
Битрейт : 1800 Кбит/сек
Ширина : 720 пикселей
Высота : 432 пикселя
Соотношение сторон : 1,667
Частота кадров : 25,000 кадров/сек
Цветовое пространство : YUV
Субдискретизация насыщенности : 4:2:0
Битовая глубина : 8 бит
Тип развёртки : Прогрессивная
Метод сжатия : С потерями
Бит/(Пиксели*Кадры) : 0.231
Размер потока : 580 Мбайт (93%)
Библиотека кодирования : XviD 1.2.1 (UTC 2008-12-04)
Аудио
Идентификатор : 1
Формат : MPEG Audio
Версия формата : Version 1
Профиль формата : Layer 3
Идентификатор кодека : 55
Идентификатор кодека/Подсказка : MP3
Продолжительность : 45 м.
Вид битрейта : Постоянный
Битрейт : 128 Кбит/сек
Каналы : 1 канал
Частота : 48,0 КГц
Метод сжатия : С потерями
Размер потока : 41,2 Мбайт (7%)
Выравнивание : Разделение по промежуткам
Продолжительность промежутка : 458 мс. (11,44 видеокадров)
Время предзагрузки промежутка : 200 мс.
Заголовок : expedition_wild_6_inside_attack_grizzli - National Geografic Wild-20110313-205508 Tc0 L2 mono 48 96 DELAY 0ms
Библиотека кодирования : LAME3.98r
Настройки программы : -m m -V 4 -q 2 -lowpass 20.5 -b 128
После закачки остаёмся на раздаче!!!
У вас нет необходимых прав для просмотра вложений в этом сообщении.