Мегазаводы. Ламборгини Авентадор / Megafactories. Lamborghini Aventador [2012, Документальный, SATRip]

Научно-популярные фильмы Национального географического общества
Торрент Сидеров Личеров Размер
torrent_4289037.torrent
0 0 558.67 МБ
Аватара пользователя
Солнышко
Сообщения: 22944
Зарегистрирован: 13 янв 2016, 22:10

Мегазаводы. Ламборгини Авентадор / Megafactories. Lamborghini Aventador [2012, Документальный, SATRip]

Сообщение Солнышко » 22 мар 2018, 21:58

Мегазаводы. Ламборгини Авентадор / Megafactories. Lamborghini Aventador
Год выпуска: 2012
Страна: США, National Geographic Channels
Жанр: Документальный
Продолжительность: 00:44:39
Перевод: Профессиональный (одноголосый)
Субтитры: Нет
Описание: Lamborghini Aventador LP700-4 — двухдверный, двухместный спортивный автомобиль, разработанный и собранный компанией Lamborghini, был впервые представлен на Женевском автосалоне 28 февраля 2011 года. Lamborghini Aventador LP700-4 оборудован 6,5-литровым 12-цилиндровым двигателем мощностью 691 л.с. (700 по версии программы "Топ Гир"). Дизайн был разработан Фелиппо Перини. Всего будет собрано 4 тысячи экземпляров. Автомобиль развивает максимальную скорость 350 км/ч (218 миль). Разгон до 100 км/ч занимает 2.9 сек. Стоимость автомобиля составляет около $350000. Узнайте о том, как создается ультрасовременный автомобиль "Ламборгини" последней модели, развивающий скорость более 350 км/ч.
Качество: SATRip
Формат: AVI
Видео кодек: DivX
Аудио кодек: MP3
Видео: DivX, 1599 Кбит/с, 704x400, 25.000 fps
Аудио: MP3, 128 Кбит/сек, 2 канала, 48,0 КГц

Код: Выделить всё

Общее
Полное имя                       : E:\Downloads\55\Megazavodi. Lamborghini Aventador.2011.DivX.SATRip.avi
Формат                           : AVI
Формат/Информация                : Audio Video Interleave
Размер файла                     : 559 Мбайт
Продолжительность                : 44 м.
Общий поток                      : 1736 Кбит/сек
Программа кодирования            : VirtualDubMod 1.5.10.3 (build 2550/release)
Библиотека кодирования           : VirtualDub build 24442/release
Правообладатель                  : Shuriman
Видео
Идентификатор                    : 0
Формат                           : MPEG-4 Visual
Параметр BVOP формата            : 1
Параметр QPel формата            : Нет
Параметр GMC формата             : Без точки перехода
Параметр матрицы формата         : Default (H.263)
Режим смешивания                 : Сжатый битовый поток
Идентификатор кодека             : DX50
Идентификатор кодека/Подсказка   : DivX 5
Продолжительность                : 44 м.
Битрейт                          : 1599 Кбит/сек
Ширина                           : 704 пикс.
Высота                           : 400 пикс.
Соотношение сторон               : 16:9
Частота кадров                   : 25,000 кадр/сек
Цветовое пространство            : YUV
Подвыборка цветности             : 4:2:0
Битовая глубина                  : 8 бит
Тип развёртки                    : Прогрессивная
Метод сжатия                     : С потерями
Бит/(Пиксели*Кадры)              : 0.227
Размер потока                    : 514 Мбайт (92%)
Библиотека кодирования           : DivX 6.8.5 (UTC 2009-08-20)
Аудио
Идентификатор                    : 1
Формат                           : MPEG Audio
Версия формата                   : Version 1
Профиль формата                  : Layer 3
Режим                            : Joint stereo
Расширение режима                : MS Stereo
Идентификатор кодека             : 55
Идентификатор кодека/Подсказка   : MP3
Продолжительность                : 44 м.
Вид битрейта                     : Постоянный
Битрейт                          : 128 Кбит/сек
Каналы                           : 2 канала
Частота                          : 48,0 КГц
Метод сжатия                     : С потерями
Размер потока                    : 41,2 Мбайт (7%)
Выравнивание                     : Разделение по промежуткам
Продолжительность промежутка     : 40  мс. (1,00 видеокадр)
Время предзагрузки промежутка    : 500 ms
Раздача группы:
Релиз: Shuriman
У вас нет необходимых прав для просмотра вложений в этом сообщении.