Мегазаводы: Гумперт Аполло / Megafactories: Gumpert Apollo [2012, Документальный, SATRip]

Научно-популярные фильмы Национального географического общества
Торрент Сидеров Личеров Размер
torrent_4273183.torrent
0 0 575.88 МБ
Аватара пользователя
Солнышко
Сообщения: 22944
Зарегистрирован: 13 янв 2016, 22:10

Мегазаводы: Гумперт Аполло / Megafactories: Gumpert Apollo [2012, Документальный, SATRip]

Сообщение Солнышко » 22 мар 2018, 21:59

Мегазаводы: Гумперт Аполло / Megafactories: Gumpert Apollo
Год выпуска: 2012
Страна: США, National Geographic Channels
Жанр: Документальный
Продолжительность: 00:44:26
Перевод: Профессиональный (одноголосый)
Субтитры: Нет
Описание: Сначала, советуем вам побывать в маленьком поселке Сант Агата в Итальянской Болонье, где настойчивые и упорные поклонники самых крутых автомобилей вручную собирают самую быструю машину Lamborghini-Murcielago SV.
Далее, отправляйтесь на север, в Англию, где вы сможете познакомиться с производством знаменитых королевских Роллз-Ройсов и узнать, почему изготовление каждого из супер-роскошных автомобилей Роллз-Ройс-Фантом требует не менее двух месяцев.
А в Швеции, вы увидите собственными глазами, как на заводе ИКЕА буквально за считанные минуты изготавливаются знаменитые и очень популярные книжные шкафы Билли. Только за тридцать лет работы предприятия было распродано 40 миллионов таких шкафов!
Хотите испытать коробку скоростей автомобиля Ауди и убедиться в том, почему революционный немецкий дорожный автомобиль Ауди-Р8 заставляет Голливуд изменить своим прежним приоритетам, прежде чем отправиться на родину классического Порше 911.
И в завершение, совершите полет в Бразилию, где, по заказу для Нью Йоркского метро, каждый вагон проходит через две с половиной тысячи сварочных операций, прежде чем его отправят в Нью-Йорк для окончательной сборки и финальной проверки.
Качество: SATRip
Формат: AVI
Видео кодек: XviD
Аудио кодек: MP3
Видео: XviD, 1649 Кбит/сек, 704 x 400 (1.760) at 25.000 fps
Аудио: MP3, 128 Кбит/сек, 2 канала, 48,0 КГц

Код: Выделить всё

Общее
Полное имя                       : E:\Downloads\55\Megafactories-Gumpert.Apollo.(2012).SATRip.avi
Формат                           : AVI
Формат/Информация                : Audio Video Interleave
Размер файла                     : 576 Мбайт
Продолжительность                : 44 м.
Общий поток                      : 1790 Кбит/сек
Библиотека кодирования           : TMPGEnc 4.0 XPress Version. 4.7.7.307
Видео
Идентификатор                    : 0
Формат                           : MPEG-4 Visual
Профиль формата                  : Advanced Simple@L5
Параметр BVOP формата            : 2
Параметр QPel формата            : Нет
Параметр GMC формата             : Без точки перехода
Параметр матрицы формата         : Default (H.263)
Режим смешивания                 : Сжатый битовый поток
Идентификатор кодека             : XVID
Идентификатор кодека/Подсказка   : XviD
Продолжительность                : 44 м.
Битрейт                          : 1649 Кбит/сек
Ширина                           : 704 пикс.
Высота                           : 400 пикс.
Соотношение сторон               : 16:9
Частота кадров                   : 25,000 кадр/сек
Цветовое пространство            : YUV
Подвыборка цветности             : 4:2:0
Битовая глубина                  : 8 бит
Тип развёртки                    : Прогрессивная
Метод сжатия                     : С потерями
Бит/(Пиксели*Кадры)              : 0.234
Размер потока                    : 531 Мбайт (92%)
Библиотека кодирования           : XviD 1.2.1 (UTC 2008-12-04)
Аудио
Идентификатор                    : 1
Формат                           : MPEG Audio
Версия формата                   : Version 1
Профиль формата                  : Layer 3
Режим                            : Joint stereo
Расширение режима                : MS Stereo
Идентификатор кодека             : 55
Идентификатор кодека/Подсказка   : MP3
Продолжительность                : 44 м.
Вид битрейта                     : Постоянный
Битрейт                          : 128 Кбит/сек
Каналы                           : 2 канала
Частота                          : 48,0 КГц
Метод сжатия                     : С потерями
Размер потока                    : 41,2 Мбайт (7%)
Выравнивание                     : Соединение по промежуткам
Продолжительность промежутка     : 40  мс. (1,00 видеокадр)
Время предзагрузки промежутка    : 384 ms
Раздача группы:
Релиз: Roumek
У вас нет необходимых прав для просмотра вложений в этом сообщении.