Мегазаводы. Тесла / Megafactories. Tesla [2012, Документальный, SATRip]

Научно-популярные фильмы Национального географического общества
Торрент Сидеров Личеров Размер
torrent_4264457.torrent
0 0 558.65 МБ
Аватара пользователя
Солнышко
Сообщения: 22944
Зарегистрирован: 13 янв 2016, 22:10

Мегазаводы. Тесла / Megafactories. Tesla [2012, Документальный, SATRip]

Сообщение Солнышко » 22 мар 2018, 21:59

Мегазаводы. Тесла / Megafactories. Tesla
Год выпуска: 2012
Страна: США, National Geographic Channels
Жанр: Документальный
Продолжительность: 00:44:32
Перевод: Профессиональный (одноголосый)
Субтитры: Нет
Описание: Учитывая все быстрее истощающиеся запасы ископаемого топлива на планете, первый в мире серийный электромобиль "Тесла" особенно актуален.
Качество: SATRip
Формат: AVI
Видео кодек: XviD
Аудио кодек: MP3
Видео: XviD, 1598 Кбит/с, 704x400 25.00fps
Аудио: MP3, 128 Кбит/сек, 2 канала, 48,0 КГц
[url=http:// СПАМ

Код: Выделить всё

Общее
Полное имя                       : E:\Downloads\Megazavodi.Tesla.2012.DivX.SATRip.avi
Формат                           : AVI
Формат/Информация                : Audio Video Interleave
Размер файла                     : 559 Мбайт
Продолжительность                : 44 м.
Общий поток                      : 1736 Кбит/сек
Программа кодирования            : VirtualDubMod 1.5.10.3 (build 2550/release)
Библиотека кодирования           : VirtualDub build 24442/release
Правообладатель                  : Shuriman
Видео
Идентификатор                    : 0
Формат                           : MPEG-4 Visual
Параметр BVOP формата            : 1
Параметр QPel формата            : Нет
Параметр GMC формата             : Без точки перехода
Параметр матрицы формата         : Default (H.263)
Режим смешивания                 : Сжатый битовый поток
Идентификатор кодека             : DX50
Идентификатор кодека/Подсказка   : DivX 5
Продолжительность                : 44 м.
Битрейт                          : 1598 Кбит/сек
Ширина                           : 704 пикс.
Высота                           : 400 пикс.
Соотношение сторон               : 16:9
Частота кадров                   : 25,000 кадр/сек
Цветовое пространство            : YUV
Подвыборка цветности             : 4:2:0
Битовая глубина                  : 8 бит
Тип развёртки                    : Прогрессивная
Метод сжатия                     : С потерями
Бит/(Пиксели*Кадры)              : 0.227
Размер потока                    : 514 Мбайт (92%)
Библиотека кодирования           : DivX 6.8.5 (UTC 2009-08-20)
Аудио
Идентификатор                    : 1
Формат                           : MPEG Audio
Версия формата                   : Version 1
Профиль формата                  : Layer 3
Режим                            : Joint stereo
Расширение режима                : MS Stereo
Идентификатор кодека             : 55
Идентификатор кодека/Подсказка   : MP3
Продолжительность                : 44 м.
Вид битрейта                     : Постоянный
Битрейт                          : 128 Кбит/сек
Каналы                           : 2 канала
Частота                          : 48,0 КГц
Метод сжатия                     : С потерями
Задержка видео                   : 8 мс.
Размер потока                    : 41,2 Мбайт (7%)
Выравнивание                     : Разделение по промежуткам
Продолжительность промежутка     : 40  мс. (1,00 видеокадр)
Время предзагрузки промежутка    : 500 ms
Раздача группы:
Релиз: Shuriman
У вас нет необходимых прав для просмотра вложений в этом сообщении.