Суперсооружения: Супертанкеры / Megastructures: Supertanker (National Geographic) [2006, документальный, HDTVRip]

Научно-популярные фильмы Национального географического общества
Торрент Сидеров Личеров Размер
torrent_4269920.torrent
0 0 653.32 МБ
Аватара пользователя
Солнышко
Сообщения: 22944
Зарегистрирован: 13 янв 2016, 22:10

Суперсооружения: Супертанкеры / Megastructures: Supertanker (National Geographic) [2006, документальный, HDTVRip]

Сообщение Солнышко » 22 мар 2018, 22:01

Суперсооружения: Супертанкеры / Megastructures: Supertanker
Год выпуска: 2006
Жанр: документальный
Продолжительность: 00:47:24
Перевод: Профессиональный (одноголосый)
Русские субтитры: нет
Режиссер: National Geographic
Описание: Откройте удивительные секреты этих покорителей морей: их размеры, технологии и достижения науки, лежащие в основе их проектирования и строительства. Получите эксклюзивный доступ в крупнейшие судостроительные компании и верфи.
Качество: HDTVRip
Формат: MKV
Видео кодек: H.264
Аудио кодек: MP3
Видео: 1280x720 (16:9), 25.000 fps, AVC(х264), High@L3.0, ~ 1 800 Kbps, 0.078 bit/pixel
Аудио: 48 kHz, MPEG Layer 3, 2 ch, ~128.00 kbps avg
Общее
Уникальный идентификатор : 172714478098458988123398914926730152987 (0x81EF993899B3C9CD851267761FE60C1B)
Полное имя : D:\Кiно\документалки\megastructures_supertanker_Veyron7777.mkv
Формат : Matroska
Версия формата : Version 1
Размер файла : 653 Мбайт
Продолжительность : 47 м.
Общий поток : 1927 Кбит/сек
Дата кодирования : UTC 2012-01-23 05:04:53
Программа кодирования : mkvmerge v2.4.0 ('Fumbling Towards Ecstasy') built on Oct 11 2008 20:13:15
Библиотека кодирования : libebml v0.7.7 + libmatroska v0.8.1
Видео
Идентификатор : 1
Формат : AVC
Формат/Информация : Advanced Video Codec
Профиль формата : High@L3.0
Параметр CABAC формата : Нет
Параметр ReFrames формата : 1 кадр
Идентификатор кодека : V_MPEG4/ISO/AVC
Продолжительность : 47 м.
Битрейт : 1800 Кбит/сек
Ширина : 1280 пикселей
Высота : 720 пикселей
Соотношение сторон : 16:9
Режим частоты кадров : Постоянный
Частота кадров : 25,000 кадров/сек
Цветовое пространство : YUV
Субдискретизация насыщенности : 4:2:0
Битовая глубина : 8 бит
Тип развёртки : Прогрессивная
Бит/(Пиксели*Кадры) : 0.078
Размер потока : 597 Мбайт (91%)
Библиотека кодирования : x264 core 80 r1378+57 6f6b50a
Настройки программы : cabac=0 / ref=1 / deblock=1:0:0 / analyse=0x3:0x113 / me=hex / subme=7 / psy=1 / psy_rd=1.0:0.0 / mixed_ref=0 / me_range=16 / chroma_me=1 / trellis=0 / 8x8dct=1 / cqm=0 / deadzone=21,11 / fast_pskip=1 / chroma_qp_offset=-2 / threads=3 / sliced_threads=0 / nr=0 / decimate=1 / mbaff=0 / constrained_intra=0 / bframes=0 / wpredp=2 / keyint=250 / keyint_min=25 / scenecut=40 / rc_lookahead=40 / rc=abr / mbtree=1 / bitrate=1800 / ratetol=1.0 / qcomp=0.60 / qpmin=10 / qpmax=51 / qpstep=4 / ip_ratio=1.40 / aq=1:1.00
Default : Да
Forced : Нет
Аудио
Идентификатор : 2
Формат : MPEG Audio
Версия формата : Version 1
Профиль формата : Layer 3
Режим : Joint stereo
Расширение режима : MS Stereo
Идентификатор кодека : A_MPEG/L3
Идентификатор кодека/Подсказка : MP3
Продолжительность : 47 м.
Вид битрейта : Постоянный
Битрейт : 128 Кбит/сек
Каналы : 2 канала
Частота : 48,0 КГц
Метод сжатия : С потерями
Размер потока : 43,4 Мбайт (7%)
Default : Да
Forced : Нет
У вас нет необходимых прав для просмотра вложений в этом сообщении.