National Geographic. Карточный фокусник / National Geographic. Card Shark (Атул Малхотра / Atul Malhotra) [2013, Докумен

Научно-популярные фильмы Национального географического общества
Торрент Сидеров Личеров Размер
torrent_4547453.torrent
0 0 821.04 МБ
Аватара пользователя
Солнышко
Сообщения: 22944
Зарегистрирован: 13 янв 2016, 22:10

National Geographic. Карточный фокусник / National Geographic. Card Shark (Атул Малхотра / Atul Malhotra) [2013, Докумен

Сообщение Солнышко » 22 мар 2018, 22:02

National Geographic. Карточный фокусник / National Geographic. Card Shark
Год выпуска: 2013
Выпущено: США, NGC Network US, LLC & NGC Network Internation
Жанр: Документальный, фокусы, психология
Продолжительность: 00:44:55
Перевод: Профессиональный (одноголосый закадровый)
Русские субтитры: нет
Режиссер: Атул Малхотра / Atul Malhotra
Описание: Иллюзионист и карточный фокусник Драммонд Мани-Куттс путешествует по миру, показывая фокусы и рассказывая о своих техниках обмана.
Сэмпл: http://sendfile.su/873861
качество: DVB
формат: TS
Видео: MPEG4 AVC, 720x576 (16:9), 25.00fps, ~2300 Kbps avg, 0.216 bit/pixel
Аудио: MPEG Audio Layer 2, 48000Hz stereo, ~192kbps avg
Код:

Код: Выделить всё

Общее
Идентификатор                            : 1 (0x1)
Полное имя                               : D:\Card Shark.2013.DVB.ts
Формат                                   : MPEG-TS
Размер файла                             : 821 Мбайт
Продолжительность                        : 44 м.
Режим общего битрейта                    : Переменный
Общий поток                              : 2555 Кбит/сек
Видео
Идентификатор                            : 501 (0x1F5)
Идентификатор меню                       : 1 (0x1)
Формат                                   : AVC
Формат/Информация                        : Advanced Video Codec
Профиль формата                          : Main@L3.0
Параметр CABAC формата                   : Да
Параметр ReFrames формата                : 3 кадра
Параметр GOP формата                     : M=4, N=24
Идентификатор кодека                     : 27
Продолжительность                        : 44 м.
Битрейт                                  : 2235 Кбит/сек
Ширина                                   : 720 пикселей
Высота                                   : 576 пикселей
Соотношение сторон                       : 16:9
Частота кадров                           : 25,000 кадров/сек
Стандарт вещания                         : Component
Цветовое пространство                    : YUV
Субдискретизация насыщенности            : 4:2:0
Битовая глубина                          : 8 бит
Тип развёртки                            : Чересстрочная
Порядок развёртки                        : Верхнее поле первое
Бит/(Пиксели*Кадры)                      : 0.216
Размер потока                            : 718 Мбайт (87%)
Основные цвета                           : BT.601 PAL
Характеристики трансфера                 : BT.470 System B, BT.470 System G
Коэффициенты матрицы                     : BT.601
Аудио
Идентификатор                            : 502 (0x1F6)
Идентификатор меню                       : 1 (0x1)
Формат                                   : MPEG Audio
Версия формата                           : Version 1
Профиль формата                          : Layer 2
Идентификатор кодека                     : 3
Продолжительность                        : 44 м.
Вид битрейта                             : Постоянный
Битрейт                                  : 192 Кбит/сек
Каналы                                   : 2 канала
Частота                                  : 48,0 КГц
Метод сжатия                             : С потерями
Размер потока                            : 61,7 Мбайт (8%)
Язык                                     : Russian
У вас нет необходимых прав для просмотра вложений в этом сообщении.