National Geographic: Зыбучие пески / National Geographic: Quicksand [1999, Научно-популярный, DVDRip]

Научно-популярные фильмы Национального географического общества
Торрент Сидеров Личеров Размер
torrent_4470359.torrent
0 0 822.36 МБ
Аватара пользователя
Солнышко
Сообщения: 22944
Зарегистрирован: 13 янв 2016, 22:10

National Geographic: Зыбучие пески / National Geographic: Quicksand [1999, Научно-популярный, DVDRip]

Сообщение Солнышко » 22 мар 2018, 22:02

National Geographic: Зыбучие пески / National Geographic: Quicksand
Год выпуска: 1999
Страна: США
Жанр: Научно-популярный
Продолжительность: 00:53:43
Перевод: Авторский (одноголосый закадровый) Ю.Сербин
Русские субтитры: нет
Режиссер:Ами Бьюкер
Описание: Зыбучие пески существуют всегда 24 часа в сутки . Они реальны ...они опасны они встречаются всегда...Они встречаются чаше чем вы думаете
качество: DVDRip
формат: AVI
Видео: Video: 640x480 (1.33:1), 25 fps, XviD build 50 ~1999 kbps avg, 0.26 bit/pixel
Аудио: Audio: 44.100 kHz, MPEG Layer 3, 2 ch, ~128.00 kbps avg





Complete name : H:\NG Зыбучие пески.avi
Format : AVI
Format/Info : Audio Video Interleave
File size : 822 MiB
Duration : 53mn 43s
Overall bit rate : 2 140 Kbps
Movie name : NG Зыбучие пески
Genre : Documentary
Writing application : Lavf52.57.1
Original source form/Name : Documentary
Video
ID : 0
Format : xvid
Codec ID : xvid
Duration : 53mn 43s
Bit rate : 2 000 Kbps
Width : 640 pixels
Height : 480 pixels
Display aspect ratio : 4:3
Frame rate : 25.000 fps
Bits/(Pixel*Frame) : 0.260
Stream size : 768 MiB (93%)
Audio
ID : 1
Format : MPEG Audio
Format version : Version 1
Format profile : Layer 3
Mode : Joint stereo
Mode extension : MS Stereo
Codec ID : 55
Codec ID/Hint : MP3
Duration : 53mn 43s
Bit rate mode : Constant
Bit rate : 128 Kbps
Channel(s) : 2 channels
Sampling rate : 44.1 KHz
Compression mode : Lossy
Stream size : 49.2 MiB (6%)
Alignment : Aligned on interleaves
Interleave, duration : 26 ms (0.65 video frame)
Writing library : LAME3.98.2ЄЄЄЄЄЄЄЄЄЄ
Сэмпл http://multi-up.com/877888
У вас нет необходимых прав для просмотра вложений в этом сообщении.