Убийство Иисуса / Killing Jesus (Кристофер Менол / Christopher Menaul) [2015, США, драма, биография, история, HDRip] (Ст

Научно-популярные фильмы Национального географического общества
Торрент Сидеров Личеров Размер
torrent_5010031.torrent
0 0 1.46 ГБ
Аватара пользователя
Солнышко
Сообщения: 22944
Зарегистрирован: 13 янв 2016, 22:10

Убийство Иисуса / Killing Jesus (Кристофер Менол / Christopher Menaul) [2015, США, драма, биография, история, HDRip] (Ст

Сообщение Солнышко » 22 мар 2018, 22:03

Убийство Иисуса / Killing Jesus
Страна: США
Жанр: драма, биография, история
Год выпуска: 2015
Продолжительность: 02:12:09
Перевод: Профессиональный (одноголосый закадровый) Станислав Войнич / "Велес"
Субтитры: нет
Оригинальная аудиодорожка: нет
Режиссер: Кристофер Менол / Christopher Menaul
В ролях: Эммануэль Шрики, Стивен Мойер, Руфус Сьюэлл, Джон Рис-Дэвис, Келси Грэммер, Тэмзин Эджертон, Оуэн Мэкен, Хааз Слейман, Анейрин Барнард, Клара Иссова
Описание: В этом фильме показан весь человеческий путь и существование на Земле Иисуса из Назарета. Его нелёгкий путь и судьба, которая ему была уготована по праву. На его пути попадались разные люди, кто чтил его, кто втаптывал в грязь, как относилась в целом к нему Великая Римская империя с её жестокими наместниками. Все исторические факты были показаны с литературной точки зрения. Поэтому тут переплетается история и художественный вымысел, освятивший жизнь мученика, которую он прошёл до мучительной смерти.

Качество видео: HDRip (Исх. BDRip 720p)
Формат видео: AVI
Видео: 688x384 (1.79:1), 23.976 fps, XviD build 73 ~1376 kbps avg, 0.22 bit/pixel
Аудио: 48 kHz, AC3 Dolby Digital, 2/0 (L,R) ch, ~192.00 kbps avg
Общее
Полное имя : S:Убийство Иисуса. 2015. HDRip (AleksSin).avi
Формат : AVI
Формат/Информация : Audio Video Interleave
Размер файла : 1,46 Гбайт
Продолжительность : 2 ч. 12 м.
Общий поток : 1577 Кбит/сек
Программа кодирования : VirtualDubMod 1.5.10.3 | www.virtualdub-fr.org || (build 2550/release)
Библиотека кодирования : VirtualDubMod build 2550/release
Видео
Идентификатор : 0
Формат : MPEG-4 Visual
Профиль формата : Advanced Simple@L5
Параметр BVOP формата : 1
Параметр QPel формата : Нет
Параметр GMC формата : Без точки перехода
Параметр матрицы формата : Выборочная
Идентификатор кодека : XVID
Идентификатор кодека/Подсказка : XviD
Продолжительность : 2 ч. 12 м.
Битрейт : 1376 Кбит/сек
Ширина : 688 пикс.
Высота : 384 пикс.
Соотношение сторон : 16:9
Частота кадров : 23,976 кадр/сек
Цветовое пространство : YUV
Подвыборка цветности : 4:2:0
Битовая глубина : 8 бит
Тип развёртки : Прогрессивная
Метод сжатия : С потерями
Бит/(Пиксели*Кадры) : 0.217
Размер потока : 1,27 Гбайт (87%)
Библиотека кодирования : XviD 73
Аудио
Идентификатор : 1
Формат : AC-3
Формат/Информация : Audio Coding 3
Расширение режима : CM (complete main)
Идентификатор кодека : 2000
Продолжительность : 2 ч. 12 м.
Вид битрейта : Постоянный
Битрейт : 192 Кбит/сек
Каналы : 2 канала
Расположение каналов : Front: L R
Частота : 48,0 КГц
Битовая глубина : 16 бит
Метод сжатия : С потерями
Размер потока : 181 Мбайт (12%)
Выравнивание : Разделение по промежуткам
Продолжительность промежутка : 42 мс. (1,00 видеокадр)
Время предзагрузки промежутка : 500 ms
У вас нет необходимых прав для просмотра вложений в этом сообщении.