Пещера гигантских кристаллов / Into the Crystal Cave (Гэри Лэнг, Гонсало Инфанте / Gary Lang, Gonzalo Infante) [2010, До

Научно-популярные фильмы Национального географического общества
Торрент Сидеров Личеров Размер
torrent_5235985.torrent
0 0 739.32 МБ
Аватара пользователя
Солнышко
Сообщения: 22944
Зарегистрирован: 13 янв 2016, 22:10

Пещера гигантских кристаллов / Into the Crystal Cave (Гэри Лэнг, Гонсало Инфанте / Gary Lang, Gonzalo Infante) [2010, До

Сообщение Солнышко » 22 мар 2018, 22:04

Пещера гигантских кристаллов / Into the Crystal Cave
Дата/Год выпуска: 2010
Страна: Мексика / США
Жанр: Документальный
Продолжительность: 00:45:07
Перевод: Студийный (одноголосый закадровый)
Доп. инфо о переводе: студия "АРК-ТВ" - Игорь Тарадайкин
Режиссер: Гэри Лэнг, Гонсало Инфанте / Gary Lang, Gonzalo Infante
Телеканал: National Geographic
Описание: Смертельно опасная, величественная пещера, заполненная острыми, как лезвие, непрочными гигантскими кристаллами. Существуют ли чудеса способные сравняться с ней по красоте? Команда ученых рискует своими жизнями, что бы узнать это. Страшная жара и влажность могут убить неосторожного исследователя за считанные минуты. Спелеологи открывают другие смертоносные, но сногсшибательные пещеры и натыкаются на очередную загадку. Тайна скрывается глубоко под поверхностью земли, еще в одной пещере гигантских кристаллов.
Доп. информация: Необработанный поток AVC со спутника, вырезана реклама, восстановлена индексация. В TS оставить не получается, появляется прогрессирующий рассинхрон.
Сэмпл: http:// СПАМ
качество: DVB
формат: MKV
Видео: 1047x576@720x576 (16:9 PAL Anamorphic), H.264 [AVC SD] Level 3, 25 fps, Interlaced, ABR 2000 kbps
Аудио: Russian (VO "АРК-ТВ"), MPEG1-Layer 2, 48000 Hz, 2.0ch Stereo, CBR 192 kbps

Код: Выделить всё

General
Unique ID                                : 120727563224586733229223336165982638117 (0x5AD3486CF7B407F1191811A0BD789025)
Complete name                            : Пещера гигантских кристаллов.mkv
Format                                   : Matroska
Format version                           : Version 4 / Version 2
File size                                : 739 MiB
Duration                                 : 45mn 7s
Overall bit rate                         : 2 291 Kbps
Encoded date                             : UTC 2016-06-02 20:19:37
Writing application                      : mkvmerge v9.2.0 ('Photograph') 64bit
Writing library                          : libebml v1.3.3   libmatroska v1.4.4
DURATION                                 : 00:47:07.200000000
NUMBER_OF_FRAMES                         : 112608
NUMBER_OF_BYTES                          : 64862208
_STATISTICS_WRITING_APP                  : mkvmerge v9.2.0 ('Photograph') 64bit
_STATISTICS_WRITING_DATE_UTC             : 2016-06-02 20:19:37
_STATISTICS_TAGS                         : BPS DURATION NUMBER_OF_FRAMES NUMBER_OF_BYTES
Video
ID                                       : 1
Format                                   : AVC
Format/Info                              : Advanced Video Codec
Format profile                           : Main@L3.0
Format settings, CABAC                   : Yes
Format settings, ReFrames                : 4 frames
Codec ID                                 : V_MPEG4/ISO/AVC
Duration                                 : 45mn 7s
Bit rate                                 : 2 053 Kbps
Width                                    : 720 pixels
Height                                   : 576 pixels
Display aspect ratio                     : 16:9
Frame rate mode                          : Constant
Frame rate                               : 25.000 fps
Standard                                 : Component
Color space                              : YUV
Chroma subsampling                       : 4:2:0
Bit depth                                : 8 bits
Scan type                                : Interlaced
Scan order                               : Top Field First
Bits/(Pixel*Frame)                       : 0.198
Stream size                              : 663 MiB (90%)
Default                                  : Yes
Forced                                   : No
Color primaries                          : BT.601 PAL
Transfer characteristics                 : BT.470 System B, BT.470 System G
Matrix coefficients                      : BT.601
Audio
ID                                       : 2
Format                                   : MPEG Audio
Format version                           : Version 1
Format profile                           : Layer 2
Mode                                     : Joint stereo
Mode extension                           : Intensity Stereo   MS Stereo
Codec ID                                 : A_MPEG/L2
Codec ID/Hint                            : MP2
Duration                                 : 45mn 7s
Bit rate mode                            : Constant
Bit rate                                 : 192 Kbps
Channel(s)                               : 2 channels
Sampling rate                            : 48.0 KHz
Compression mode                         : Lossy
Delay relative to video                  : 5ms
Stream size                              : 62.0 MiB (8%)
Title                                    : Russian VO ("АРК-ТВ") - Игорь Тарадайкин
Language                                 : Russian
Default                                  : Yes
Forced                                   : No
У вас нет необходимых прав для просмотра вложений в этом сообщении.