Молния. Перезарядка / Lightning reloaded (Манфред Христа) [2010, Документальный, научно-познавательный, природа, HDTVRip

Научно-популярные фильмы Национального географического общества
Торрент Сидеров Личеров Размер
torrent_4353674.torrent
0 0 655.65 МБ
Аватара пользователя
Солнышко
Сообщения: 22944
Зарегистрирован: 13 янв 2016, 22:10

Молния. Перезарядка / Lightning reloaded (Манфред Христа) [2010, Документальный, научно-познавательный, природа, HDTVRip

Сообщение Солнышко » 22 мар 2018, 22:04

Молния. Перезарядка / Lightning reloaded
Год выпуска: 2010
Страна: США
Производство: ORF UNIVERSUM, ZDF and National Geographic Channel
Жанр: Документальный, научно-познавательный, природа
Продолжительность: 00:44:59
Перевод: Одноголосый закадровый
Русские субтитры: нет
Режиссер: Манфред Христа
Описание: Исследования грозового неба - это одно из самых захватывающих приключений в современной науке. Это путешествие в самое сердце грозы, к научным границам, в неизведанный, полный загадок мир. Грозовая молния, по-прежнему окутана загадками. В этом фильме исследователи открывают ее тайны одну за другой...
качество: HDTVRip
формат: AVI
видеокодек: XviD
аудиокодек: MP3
Видео: MPEG-4 Visual, XviD, 704 х 400 (16:9), 25,000 кадров/сек, 1900 Кбит/сек, 0.270 бит/пиксель
Аудио: MPEG Audio Layer 3, 48,0 КГц, 128 Кбит/сек, 2 канала
Автор рипа: Пору4ик
Общее
Полное имя : E:\torrent\Молния. Перезарядка HDTVRip.avi
Формат : AVI
Формат/Информация : Audio Video Interleave
Размер файла : 656 Мбайт
Продолжительность : 44 м.
Общий поток : 2038 Кбит/сек
Программа кодирования : VirtualDubMod 1.5.10.3 | www.virtualdub-fr.org || (build 2550/release)
Библиотека кодирования : VirtualDubMod build 2550/release
Видео
Идентификатор : 0
Формат : MPEG-4 Visual
Профиль формата : Advanced Simple@L5
Параметр BVOP формата : 2
Параметр QPel формата : Нет
Параметр GMC формата : Без точки перехода
Параметр матрицы формата : Default (MPEG)
Идентификатор кодека : XVID
Идентификатор кодека/Подсказка : XviD
Продолжительность : 44 м.
Битрейт : 1900 Кбит/сек
Ширина : 704 пикселя
Высота : 400 пикселей
Соотношение сторон : 16:9
Частота кадров : 25,000 кадров/сек
Цветовое пространство : YUV
Субдискретизация насыщенности : 4:2:0
Битовая глубина : 8 бит
Тип развёртки : Прогрессивная
Метод сжатия : С потерями
Бит/(Пиксели*Кадры) : 0.270
Размер потока : 611 Мбайт (93%)
Библиотека кодирования : XviD 1.2.1 (UTC 2008-12-04)
Аудио
Идентификатор : 1
Формат : MPEG Audio
Версия формата : Version 1
Профиль формата : Layer 3
Идентификатор кодека : 55
Идентификатор кодека/Подсказка : MP3
Продолжительность : 44 м.
Вид битрейта : Постоянный
Битрейт : 128 Кбит/сек
Каналы : 2 канала
Частота : 48,0 КГц
Метод сжатия : С потерями
Размер потока : 41,2 Мбайт (6%)
Выравнивание : Соединение по промежуткам
Продолжительность промежутка : 40 мс. (1,00 видеокадр)
Время предзагрузки промежутка : 504 мс.
Библиотека кодирования : LAME3.99r
Настройки программы : -m s -V 4 -q 2 -lowpass 17 -b 128
У вас нет необходимых прав для просмотра вложений в этом сообщении.