National Geographic : Тропический лес / National Geographic : Tropical Forest [1983, Научно-популярный, DVDRip]

Научно-популярные фильмы Национального географического общества
Торрент Сидеров Личеров Размер
torrent_4781592.torrent
0 0 844.4 МБ
Аватара пользователя
Солнышко
Сообщения: 22944
Зарегистрирован: 13 янв 2016, 22:10

National Geographic : Тропический лес / National Geographic : Tropical Forest [1983, Научно-популярный, DVDRip]

Сообщение Солнышко » 22 мар 2018, 22:05

National Geographic : Тропический лес / National Geographic : Tropical Forest
Дата/Год выпуска: 1983
Страна: США
Жанр: Научно-популярный
Продолжительность: 00:55:08
Перевод: Студийный (одноголосый закадровый) (Ю.Сербин)
Русские субтитры: нет
Описание: Рассказ о животных тропического леса Коста - Рики
Сэмпл: http:// СПАМ
качество: DVDRip
формат: AVI
Видео: Video: 640x480 (1.33:1), 25 fps, XviD build 50 ~1999 kbps avg, 0.26 bit/pixe
Аудио: Audio: 44.100 kHz, MPEG Layer 3, 2 ch, ~128.00 kbps avg

Код: Выделить всё

General
Complete name                            : H:\NG Тропический лес.avi
Format                                   : AVI
Format/Info                              : Audio Video Interleave
File size                                : 844 MiB
Duration                                 : 55mn 8s
Overall bit rate                         : 2 141 Kbps
Writing application                      : Lavf52.57.1
Video
ID                                       : 0
Format                                   : xvid
Codec ID                                 : xvid
Duration                                 : 55mn 8s
Bit rate                                 : 2 001 Kbps
Width                                    : 640 pixels
Height                                   : 480 pixels
Display aspect ratio                     : 4:3
Frame rate                               : 25.000 fps
Bits/(Pixel*Frame)                       : 0.260
Stream size                              : 789 MiB (93%)
Audio
ID                                       : 1
Format                                   : MPEG Audio
Format version                           : Version 1
Format profile                           : Layer 3
Mode                                     : Joint stereo
Mode extension                           : MS Stereo
Codec ID                                 : 55
Codec ID/Hint                            : MP3
Duration                                 : 55mn 8s
Bit rate mode                            : Constant
Bit rate                                 : 128 Kbps
Channel(s)                               : 2 channels
Sampling rate                            : 44.1 KHz
Compression mode                         : Lossy
Stream size                              : 50.5 MiB (6%)
Alignment                                : Aligned on interleaves
Interleave, duration                     : 26 ms (0.65 video frame)








У вас нет необходимых прав для просмотра вложений в этом сообщении.