Кладоискатели / Diggers ( Сезон 1: Серии 5, 6, 8, 10 из ?? ) [2012, Документальный, SATRip]

Научно-популярные фильмы Национального географического общества
Торрент Сидеров Личеров Размер
torrent_4467975.torrent
0 0 1.41 ГБ
Аватара пользователя
Солнышко
Сообщения: 22944
Зарегистрирован: 13 янв 2016, 22:10

Кладоискатели / Diggers ( Сезон 1: Серии 5, 6, 8, 10 из ?? ) [2012, Документальный, SATRip]

Сообщение Солнышко » 22 мар 2018, 22:05

Кладоискатели

Оригинальное название: Diggers
Год выпуска: 2012
Страна: США
Жанр: документальный
Продолжительность: 4 x ~ 00:22:29
Перевод: Одноголосый закадровый [АРК-ТВ, Игорь Тарадайкин]
В ролях: Tim Saylor, George Wyant
Описание: Разнообразные исторические ценности лежат прямо под ногами по всей Америке – истории тысяч предметов старины ждут своего открытия, от потерянных фамильных ценностей до военных реликвий. Именно этим и увлекаются Тим по прозвищу Властелин колец, или Ринги, и Джордж по прозвищу Король Джордж, или просто Кей-Джи – колоритная парочка друзей - неутомимых кладоискателей и историков-любителей, отличающихся зажигательным энтузиазмом и прекрасным чувством юмора. Эти парни колесят по всей Америке с металлоискателем, надеясь, что однажды им повезет, и они найдут по-настоящему ценный клад, как тот счастливчик из Англии, обнаруживший саксонские драгоценности. Со своим особым сленгом и субкультурой наши Кладоискатели превращают копание в грязи в увлекательное приключение

Сэмпл: http://multi-up.com/876514
Качество видео: SATRip
Формат: AVI
Видео кодек: XviD
Аудио кодек: MP3
Видео: 704x400 (16:9), 25 fps, XviD MPEG-4 ~ 2000 Kbps
Аудио: 48 kHz, MPEG Layer 3, 2ch, ~ 192 Kbps
Парни копают на месте военных лагерей времен Гражданской войны в штате Виргиния, где могли сохраниться артефакты и южан, и северян
Парни посещают место, где когда-то располагался кавалерийский лагерь, и там Кэй-Джи натыкается на то, что вполне может стать находкой всей жизни
Кэй-Джи и Ринги отправляются в Кейп-Код, где находилось одно из старейших поселений Нового Света, где они надеются найти артефакты 17 века
Парни возвращаются в родную Монтану, где помогают маме Кэй-Джи искать старинное кольцо, а затем отправляются в горы на поиски золота

Код: Выделить всё

Общее
Полное имя                               : Diggers.2012.s01e10.SATRip.Gold.Diggers.by.Slipknot_cooler.avi
Формат                                   : AVI
Формат/Информация                        : Audio Video Interleave
Размер файла                             : 355 Мбайт
Продолжительность                        : 22 м.
Общий поток                              : 2205 Кбит/сек
Программа кодирования                    : VirtualDubModRus 1.5.10.2 (build 2540/release)
Библиотека кодирования                   : VirtualDubMod build 2540/release
Видео
Идентификатор                            : 0
Формат                                   : MPEG-4 Visual
Профиль формата                          : Advanced Simple@L5
Параметр BVOP формата                    : 2
Параметр QPel формата                    : Нет
Параметр GMC формата                     : Без точки перехода
Параметр матрицы формата                 : Default (H.263)
Идентификатор кодека                     : XVID
Идентификатор кодека/Подсказка           : XviD
Продолжительность                        : 22 м.
Битрейт                                  : 2004 Кбит/сек
Ширина                                   : 704 пикселя
Высота                                   : 400 пикселей
Соотношение сторон                       : 16:9
Частота кадров                           : 25,000 кадров/сек
Цветовое пространство                    : YUV
Субдискретизация насыщенности            : 4:2:0
Битовая глубина                          : 8 бит
Тип развёртки                            : Прогрессивная
Метод сжатия                             : С потерями
Бит/(Пиксели*Кадры)                      : 0.285
Размер потока                            : 322 Мбайт (91%)
Библиотека кодирования                   : XviD 1.2.1 (UTC 2008-12-04)
Аудио
Идентификатор                            : 1
Формат                                   : MPEG Audio
Версия формата                           : Version 1
Профиль формата                          : Layer 3
Идентификатор кодека                     : 55
Идентификатор кодека/Подсказка           : MP3
Продолжительность                        : 22 м.
Вид битрейта                             : Постоянный
Битрейт                                  : 192 Кбит/сек
Каналы                                   : 2 канала
Частота                                  : 48,0 КГц
Метод сжатия                             : С потерями
Размер потока                            : 30,9 Мбайт (9%)
Выравнивание                             : Соединение по промежуткам
Продолжительность промежутка             : 40  мс. (1,00 видеокадр)
Время предзагрузки промежутка            : 504  мс.
Библиотека кодирования                   : LAME3.99.5

Внимание! Раздача ведётся путём добавления новых серий; при каждом добавлении создётся новый торрент. Чтобы начать докачку новой серии, пользователям необходимо сделать следующее:
(1) остановить скачивание,
(2) удалить старый торрент у себя из клиента (старые серии удалять не надо),
(3) скачать новый торрент и запустить его у себя в клиенте вместо старого, при этом указать клиенту путь в старую папку куда и должно происходить скачивание новых серий.
Ваш клиент при этом должен произвести хеширование (проверку) старой папки (если не производит сам - помогите ему сделать это), и будет докачивать только те серии которых у вас ещё нет. Старые серии при этом не удаляются, а продолжают раздаваться!
Eсли вы уже удалили старые серии, то предотвратить повторную закачку старых серий можно, отжав галочку в соответсвующих местах при запуске нового торрента. По возможности, желательно не удалять старые серии как можно дольше чтобы релизёр не столько продолжал раздавать старые серии, а смог сконцентрироваться на новых.
У вас нет необходимых прав для просмотра вложений в этом сообщении.