С точки зрения науки: Экспедиция "Виски" / Naked Science. Expedition Whisky (National Geographic / Майк Сли) [2011, Доку

Научно-популярные фильмы Национального географического общества
Торрент Сидеров Личеров Размер
torrent_4430615.torrent
0 0 459.12 МБ
Аватара пользователя
Солнышко
Сообщения: 22944
Зарегистрирован: 13 янв 2016, 22:10

С точки зрения науки: Экспедиция "Виски" / Naked Science. Expedition Whisky (National Geographic / Майк Сли) [2011, Доку

Сообщение Солнышко » 22 мар 2018, 22:07

С точки зрения науки: Экспедиция "Виски" / Naked Science. Expedition Whisky
Год выпуска: 2011
Страна: США
Жанр: Документальный
Продолжительность: 00:44:59
Перевод: Одноголосый закадровый
Русские субтитры: нет
Режиссер: Майк Сли

Описание: Из пустынной Антарктиды в высокогорье Шотландии. Редкое бесценное виски возвращается домой. Вошедший в историю ящик скотча полярного исследователя Эрнеста Шеклтона 100 лет пролежал во льдах. Одному из ведущих дегустаторов мира предстоит раскрыть секрет и возродить винтажный напиток. Сможет ли он повернуть время вспять? Что он обнаружит, когда откупорит потерянный напиток Шеклтона?
качество: IPTVRip
формат: AVI
видеокодек: XviD
аудиокодек: MP3
Видео: Xvid, 704x400, ~25.00fps, 1224 Kbps
Аудио: MP3, 192 Кбит/сек, 48,0 КГц, 2 ch
Формат : AVI
Формат/Информация : Audio Video Interleave
Размер файла : 459 Мбайт
Продолжительность : 44 м.
Общий поток : 1427 Кбит/сек
Программа кодирования : VirtualDubMod 1.5.10.3|| (build 2550/release)
Библиотека кодирования : VirtualDubMod build 2550/release
Видео
Идентификатор : 0
Формат : MPEG-4 Visual
Профиль формата : Advanced Simple@L5
Параметр BVOP формата : 2
Параметр QPel формата : Нет
Параметр GMC формата : Без точки перехода
Параметр матрицы формата : Default (H.263)
Идентификатор кодека : XVID
Идентификатор кодека/Подсказка : XviD
Продолжительность : 44 м.
Битрейт : 1225 Кбит/сек
Ширина : 704 пикселя
Высота : 400 пикселей
Соотношение сторон : 16:9
Частота кадров : 25,000 кадров/сек
Цветовое пространство : YUV
Субдискретизация насыщенности : 4:2:0
Битовая глубина : 8 бит
Тип развёртки : Прогрессивная
Метод сжатия : С потерями
Бит/(Пиксели*Кадры) : 0.174
Размер потока : 394 Мбайт (86%)
Библиотека кодирования : XviD 64
Аудио
Идентификатор : 1
Формат : MPEG Audio
Версия формата : Version 1
Профиль формата : Layer 3
Идентификатор кодека : 55
Идентификатор кодека/Подсказка : MP3
Продолжительность : 44 м.
Вид битрейта : Постоянный
Битрейт : 192 Кбит/сек
Каналы : 2 канала
Частота : 48,0 КГц
Метод сжатия : С потерями
Размер потока : 61,8 Мбайт (13%)
Выравнивание : Соединение по промежуткам
Продолжительность промежутка : 40 мс. (1,00 видеокадр)
Время предзагрузки промежутка : 504 мс.
Библиотека кодирования : L3.99r
Настройки программы : -m s -V 4 -q 0 -lowpass 18.6 -b 192
У вас нет необходимых прав для просмотра вложений в этом сообщении.