Египет. Поиски вечности / National Geographic: Egypt - Quest for Eternity (Норрис Брок / Norris Brock) [1982, документал

Научно-популярные фильмы Национального географического общества
Торрент Сидеров Личеров Размер
torrent_5348397.torrent
0 0 752.01 МБ
Аватара пользователя
Солнышко
Сообщения: 22944
Зарегистрирован: 13 янв 2016, 22:10

Египет. Поиски вечности / National Geographic: Egypt - Quest for Eternity (Норрис Брок / Norris Brock) [1982, документал

Сообщение Солнышко » 22 мар 2018, 22:07

Египет. Поиски вечности / Egypt: Quest for Eternity [National Geographic]
Дата/Год выпуска: 1982
Страна: США
Жанр: документальный
Продолжительность: 00:55:01
Перевод: Авторский (одноголосый закадровый) Петра Карцева
Русские субтитры: нет
Оригинальная аудиодорожка: английский
Режиссер: Норрис Брок / Norris Brock
Описание: Река Нил дала рождение одной из величайших цивилизаций в истории человечества. Столетия назад древним египтянам удалось воздвигнуть потрясающие храмы и монументы, красота и грандиозность которых поражает воображение. Новый фильм Национального Географического общества предоставит Вам возможность совершить захватывающее путешествие в Египет и увидеть единственное из уцелевших семи "чудес света" - громадные таинственные пирамиды. Величественные сооружения Луксора и Карнака, "Страна мертвых" и другие достопримечательности, снабженные интереснейшими комментариями известных египтологов, доставят истинное удовольствие любителям странствий и загадок прошлого.
Рецензия Михаила Иванова: Этот выпуск "Национального Географика" посвящен Египту - земле пирамид, фараонов и сфинксов, мумий и грандиозных сооружений. Нил, давший рождение величайшей из древних цивилизаций. Вы узнаете историю этой таинственной страны. Это лучший способ образования и для детей, и взрослых. Текст читает Ричард Бэйсхарт.
Доп. информация: исходник от ; перевод Карцева из коллекции Марины & Саши, оцифровал и синхронизировал
качество: DVDRip ~Сэмпл~
формат: AVI
Видео: 688x528 (1.30:1), 25 fps, XviD build 65 ~1511 kbps avg, 0.17 bit/pixel
Аудио 1: 48 kHz, AC3 Dolby Digital, 2/0 (L,R) ch, ~192 kbps - перевод Карцева
Аудио 2: 48 kHz, AC3 Dolby Digital, 2/0 (L,R) ch, ~192 kbps - английский

Код: Выделить всё

Формат                                   : AVI
Формат/Информация                        : Audio Video Interleave
Размер файла                             : 752 Мбайт
Продолжительность                        : 55 м.
Общий поток                              : 1911 Кбит/сек
Название фильма                          : Egypt: Quest For Eternity (1982,National Geographic)
Программа кодирования                    : VirtualDubMod 1.5.10.3 | www.virtualdub-fr.org || (build 2550/release)
Библиотека кодирования                   : VirtualDubMod build 2550/release
Правообладатель                          : Karl+S&M
Видео
Идентификатор                            : 0
Формат                                   : MPEG-4 Visual
Профиль формата                          : Advanced Simple@L5
Параметр BVOP формата                    : 2
Параметр QPel формата                    : Нет
Параметр GMC формата                     : Без точки перехода
Параметр матрицы формата                 : Выборочная
Идентификатор кодека                     : XVID
Идентификатор кодека/Подсказка           : XviD
Продолжительность                        : 55 м.
Битрейт                                  : 1513 Кбит/сек
Ширина                                   : 688 пикселей
Высота                                   : 528 пикселей
Соотношение сторон                       : 4:3
Частота кадров                           : 25,000 кадров/сек
Цветовое пространство                    : YUV
Субдискретизация насыщенности            : 4:2:0
Битовая глубина                          : 8 бит
Тип развёртки                            : Прогрессивная
Метод сжатия                             : С потерями
Бит/(Пиксели*Кадры)                      : 0.167
Размер потока                            : 595 Мбайт (79%)
Библиотека кодирования                   : XviD 65
Аудио #1
Идентификатор                            : 1
Формат                                   : AC-3
Формат/Информация                        : Audio Coding 3
Расширение режима                        : CM (complete main)
Параметр Endianness формата              : Big
Идентификатор кодека                     : 2000
Продолжительность                        : 55 м.
Вид битрейта                             : Постоянный
Битрейт                                  : 192 Кбит/сек
Каналы                                   : 2 канала
Расположение каналов                     : Front: L R
Частота                                  : 48,0 КГц
Битовая глубина                          : 16 бит
Метод сжатия                             : С потерями
Размер потока                            : 75,6 Мбайт (10%)
Выравнивание                             : Разделение по промежуткам
Продолжительность промежутка             : 40  мс. (1,00 видеокадр)
Время предзагрузки промежутка            : 500  мс.
Заголовок                                : Kartzev
Аудио #2
Идентификатор                            : 2
Формат                                   : AC-3
Формат/Информация                        : Audio Coding 3
Расширение режима                        : CM (complete main)
Параметр Endianness формата              : Big
Идентификатор кодека                     : 2000
Продолжительность                        : 55 м.
Вид битрейта                             : Постоянный
Битрейт                                  : 192 Кбит/сек
Каналы                                   : 2 канала
Расположение каналов                     : Front: L R
Частота                                  : 48,0 КГц
Битовая глубина                          : 16 бит
Метод сжатия                             : С потерями
Размер потока                            : 75,6 Мбайт (10%)
Выравнивание                             : Разделение по промежуткам
Продолжительность промежутка             : 40  мс. (1,00 видеокадр)
Время предзагрузки промежутка            : 500  мс.
Заголовок                                : english
эта юбилейная моя раздача на рутреккере - 100-ая !!
У вас нет необходимых прав для просмотра вложений в этом сообщении.