Секретное оружие Японии / Japan's Secret Weapon (Эрик Стэндж / Eric Stange) [2009, Военная история, DVB-AVC]

Научно-популярные фильмы Национального географического общества
Торрент Сидеров Личеров Размер
torrent_5249484.torrent
0 0 781.12 МБ
Аватара пользователя
Солнышко
Сообщения: 22944
Зарегистрирован: 13 янв 2016, 22:10

Секретное оружие Японии / Japan's Secret Weapon (Эрик Стэндж / Eric Stange) [2009, Военная история, DVB-AVC]

Сообщение Солнышко » 22 мар 2018, 22:08

Секретное оружие Японии / Japan's Secret Weapon
Дата/Год выпуска: 2009
Страна: США
Жанр: Военная история
Продолжительность: 00:47:02
Перевод: Студийный (одноголосый закадровый)
Доп. инфо о переводе: студия "АРК-ТВ" - Петр Тобилевич
Русские субтитры: нет
Оригинальная аудиодорожка: нет
Режиссер: Эрик Стэндж / Eric Stange
Телеканал: National Geographic
Описание: Весной 1946 года, спустя 8 месяцев после окончания Второй мировой войны, в США было принято решение на высочайшем правительственном уровне: одна из самых совершенных систем японского оружия была отправлена на морское дно, чтобы избежать её попадания в руки Советского Союза. Мы узнаем о том, как мог измениться ход Второй мировой войны, если бы японцы осуществили свой проект...
Сэмпл: http:// СПАМ
качество: DVB
формат: MKV
Видео: 1024x576@720x576 (16:9 PAL Anamorphic), H.264 [AVC SD] Level 3, 25 fps, Interlaced, ABR 2100 kbps
Аудио: Russian (VO "АРК-ТВ"), MPEG1-Layer 2, 48000 Hz, 2.0ch Stereo, CBR 192 kbps

Код: Выделить всё

General
Unique ID                                : 221845405891692120590466067898838994168 (0xA6E5DEFB5F9CF16A3414CFD0EEFACCF8)
Complete name                            : Секретное оружие Японии.mkv
Format                                   : Matroska
Format version                           : Version 4 / Version 2
File size                                : 781 MiB
Duration                                 : 47mn 2s
Overall bit rate                         : 2 321 Kbps
Encoded date                             : UTC 2016-07-01 07:24:03
Writing application                      : mkvmerge v9.2.0 ('Photograph') 64bit
Writing library                          : libebml v1.3.3   libmatroska v1.4.4
DURATION                                 : 00:48:44.232000000
NUMBER_OF_FRAMES                         : 117601
NUMBER_OF_BYTES                          : 67738176
_STATISTICS_WRITING_APP                  : mkvmerge v9.2.0 ('Photograph') 64bit
_STATISTICS_WRITING_DATE_UTC             : 2016-07-01 07:24:03
_STATISTICS_TAGS                         : BPS DURATION NUMBER_OF_FRAMES NUMBER_OF_BYTES
Video
ID                                       : 1
Format                                   : AVC
Format/Info                              : Advanced Video Codec
Format profile                           : Main@L3.0
Format settings, CABAC                   : Yes
Format settings, ReFrames                : 4 frames
Format settings, GOP                     : M=3, N=15
Codec ID                                 : V_MPEG4/ISO/AVC
Duration                                 : 47mn 2s
Bit rate                                 : 2 083 Kbps
Width                                    : 720 pixels
Height                                   : 576 pixels
Display aspect ratio                     : 16:9
Original display aspect ratio            : 16:9
Frame rate mode                          : Constant
Frame rate                               : 25.000 fps
Standard                                 : Component
Color space                              : YUV
Chroma subsampling                       : 4:2:0
Bit depth                                : 8 bits
Scan type                                : Interlaced
Scan order                               : Top Field First
Bits/(Pixel*Frame)                       : 0.201
Stream size                              : 701 MiB (90%)
Default                                  : Yes
Forced                                   : No
Color primaries                          : BT.601 PAL
Transfer characteristics                 : BT.470 System B, BT.470 System G
Matrix coefficients                      : BT.601
Audio
ID                                       : 2
Format                                   : MPEG Audio
Format version                           : Version 1
Format profile                           : Layer 2
Mode                                     : Joint stereo
Mode extension                           : Intensity Stereo   MS Stereo
Codec ID                                 : A_MPEG/L2
Codec ID/Hint                            : MP2
Duration                                 : 47mn 2s
Bit rate mode                            : Constant
Bit rate                                 : 192 Kbps
Channel(s)                               : 2 channels
Sampling rate                            : 48.0 KHz
Compression mode                         : Lossy
Delay relative to video                  : 13ms
Stream size                              : 64.6 MiB (8%)
Title                                    : Russian VO ("АРК-ТВ") - Петр Тобилевич
Language                                 : Russian
Default                                  : Yes
Forced                                   : No
У вас нет необходимых прав для просмотра вложений в этом сообщении.