National Geographic . Запреты США / Taboo-USA (5 серий из 12) [2013, Документальный, SATRip]

Научно-популярные фильмы Национального географического общества
Торрент Сидеров Личеров Размер
torrent_4591190.torrent
0 0 3.08 ГБ
Аватара пользователя
Солнышко
Сообщения: 22944
Зарегистрирован: 13 янв 2016, 22:10

National Geographic . Запреты США / Taboo-USA (5 серий из 12) [2013, Документальный, SATRip]

Сообщение Солнышко » 22 мар 2018, 22:08

Запреты США / Taboo-USA
Год выпуска: 2013
Страна: США, National Geographic
Жанр: Документальный
Продолжительность: 00:44:59
Перевод: Профессиональный (дублированный)
Русские субтитры: нет
Описание: Мир тайн скрыт за благопристойным фасадом Америки. Люди живут необычной жизнью и раздвигают границы того, что общество считает нормальным. От медицинских странностей до одержимых, Запреты США показывают жизнь тех, кто живет как отшельник. Несколько необыкновенных героев сериала, которые делают и любят нечто запретное, и чьи жизни стали табу. От вампиров до человека, который считает себя собакой – истории людей, бросающих вызов обществу. Будь то практика темных ритуалов вуду, вопросы здравоохранения или широкие границы того, что любить и кого любить - и это еще не все запреты США, о которых мы можем рассказать.
Официальный сайт РУ
Официальный сайт ЕНГ
качество: SATRip
формат: AVI
Видео: XviD. 720x400 (16:9) 25.00fps : 1603 Кбит/сек
Аудио: Русский, AC3, 48 kHz, 2 ch, 192 Кбит/с
Аудио: Английский AC3, 48 kHz, 2 ch, 192 Кбит/с

Релиз
За белыми заборчиками и закрытыми дверьми многих американских домов скрываются секреты. Некоторые люди выбрали себе для жизни весьма необычные жилища. Во Флориде, задний двор превращен в арену для поединков бойцов. В Лас-Вегасе группа людей нашла прибежище под землёй. В Западном Голливуде человек живет в доме, с более чем тремя сотнями манекенов. И современный бродяга, который находит множество мест для отдыха в городах по всей стране. Для большинства людей, дом – это священное место, но эти люди превратили свои дома в нечто, на что общество может наложить ярлык «табу»
В обычных, огороженных белыми заборчиками американских домах, с закрытыми дверями, хранят свои секреты люди, одержимые коллекционированием или ведущие экстремальный образ жизни. Зачастую, их одержимости настолько серьезны, что для большинства американцев это входит в сферу «табу». Неподалеку от города Фресно, штат Калифорния, женщина живет с тысячью кошек. На юге Техаса супружеская пара придает новый смысл переодеванию в клоунов. На Нью - Йоркском острове Стейтон – Айленд семья живет в зловещем кукольном доме. А в городе Сью Фоллс , штат Южная Дакота, человек чрезмерно увлекся упражнениями, которые сделали его излишне худым. У всех у них в жизни есть страсть, которая переросла в одержимость. Все они живут жизнями, которые большинству людей кажутся запретными.
В обычных американских домах, огороженных белыми заборчиками, за закрытыми дверями люди хранят свои секреты. Некоторые считают, что нашли источник молодости. В калифорнийской пещере йог наслаждается необычным эликсиром. В Голливуде печать времени стирают на операционном столе. В Нью- Йорке восточный гуру уверяет, что открыл секрет бессмертия. А для бодибилдера из Лос-Анджелеса главное оружие в борьбе со старением –игла. Многие решат, что их способы сохранить молодость неправильны, нездоровы и опасны. Для многих, это-табу.
В обычных американских домах, огороженных белыми заборчиками, за закрытыми дверями люди хранят свои секреты. Некоторые люди меняют свои тела, чтобы раздвинуть границы существования. В Сан-Диего штат Калифорния прихожане неоднозначной церкви преодолевают ограничения своей плоти. Под Питтсбургом штат Пенсильвания команда изобретателей ищет новые способы объединить человека и машину. Во Флагстаффе штат Аризона группа женщин терпит острую боль от проколов, ради искусства и самовыражения. А в Остине штат Техас животные инстинкты одного мужчины настолько сильны, что он изменил всю поверхность своего тела. Все они стремятся преобразить свое тело, все они перешли границы, установленные обществом, все они под запретом.
Некоторые доверяют свое здоровье и благосостояние радикальной медицине. В Уэст-Палм-Бич доктор помогает своим пациентам брать новые, высоты ломая им ноги. Во Флориде мужчина занимается самолечением, используя яд. В Лос-Анджелесе священник прибегает к черной магии для лечения своих клиентов. А в Нью-Йорке доктор лечит болезни с помощью кровососущих организмов. Все они балансируют на грани медицины из-за методов и ритуалов, являющихся запретными.
Format Format : AVI
Format/Info : Audio Video Interleave
File size : 660 MiB
Duration : 43mn 47s
Overall bit rate : 2 106 Kbps
Writing application : VirtualDubModRus 1.5.10.2 (build 2542/release)
Writing library : VirtualDubMod build 2542/release
Video
ID : 0
Format : MPEG-4 Visual
Format profile : Advanced Simple@L5
Format settings, BVOP : 2
Format settings, QPel : No
Format settings, GMC : No warppoints
Format settings, Matrix : Default (H.263)
Codec ID : XVID
Codec ID/Hint : XviD
Duration : 43mn 47s
Bit rate : 1 708 Kbps
Width : 720 pixels
Height : 400 pixels
Display aspect ratio : 16:9
Frame rate : 25.000 fps
Color space : YUV
Chroma subsampling : 4:2:0
Bit depth : 8 bits
Scan type : Progressive
Compression mode : Lossy
Bits/(Pixel*Frame) : 0.237
Stream size : 535 MiB (81%)
Writing library : XviD 1.2.1 (UTC 2008-12-04)
Audio #1
ID : 1
Format : AC-3
Format/Info : Audio Coding 3
Mode extension : CM (complete main)
Format settings, Endianness : Big
Codec ID : 2000
Duration : 43mn 47s
Bit rate mode : Constant
Bit rate : 192 Kbps
Channel count : 2 channels
Channel positions : Front: L R
Sampling rate : 48.0 KHz
Bit depth : 16 bits
Compression mode : Lossy
Stream size : 60.1 MiB (9%)
Alignment : Split accross interleaves
Interleave, duration : 40 ms (1.00 video frame)
Interleave, preload duration : 500 ms
Audio #2
ID : 2
Format : AC-3
Format/Info : Audio Coding 3
Mode extension : CM (complete main)
Format settings, Endianness : Big
Codec ID : 2000
Duration : 43mn 47s
Bit rate mode : Constant
Bit rate : 192 Kbps
Channel count : 2 channels
Channel positions : Front: L R
Sampling rate : 48.0 KHz
Bit depth : 16 bits
Compression mode : Lossy
Stream size : 60.1 MiB (9%)
Alignment : Split accross interleaves
Interleave, duration : 40 ms (1.00 video frame)
Interleave, preload duration : 500 ms
Раздача ведётся путём добавления новых выпусков"]При каждом добавлении создаётся новый торрент. Чтобы начать докачку нового выпуска, пользователям необходимо сделать следующее:
● остановить скачивание;
● удалить старый торрент у себя из клиента (старые выпуски удалять не надо);
● скачать новый торрент и запустить его у себя в клиенте вместо старого, при этом указать клиенту путь в старую папку куда и должно происходить скачивание новых выпусков;
● ваш клиент при запуске должен произвести хеширование (проверку) старой папки (если не производит сам - помогите ему сделать это), и будет докачивать только те выпуски, которых у вас ещё нет. Старые выпуски при этом не удаляются, а продолжают раздаваться!
● Eсли вы уже удалили старые выпуски, то предотвратить повторную закачку старых выпусков можно, отжав галочку в соответсвующих местах при запуске нового торрента.
Добавлены серии
04. Тату и пирсинг 05. Странное лечение
Если вы скачали данный релиз и хотите выложить его на другом ресурсе -
пожалуйста, указывайте первоисточник
dysonegear
У вас нет необходимых прав для просмотра вложений в этом сообщении.