National Geographic : Гиганты Арктики / National Geographic : Battle of the Artic Giants [2004, Научно-популярный, DVDRip]

Научно-популярные фильмы Национального географического общества
Торрент Сидеров Личеров Размер
torrent_5100422.torrent
0 0 788.3 МБ
Аватара пользователя
Солнышко
Сообщения: 22944
Зарегистрирован: 13 янв 2016, 22:10

National Geographic : Гиганты Арктики / National Geographic : Battle of the Artic Giants [2004, Научно-популярный, DVDRip]

Сообщение Солнышко » 22 мар 2018, 22:09

National Geographic : Гиганты Арктики / National Geographic : Battle of the Artic Giants
Дата/Год выпуска: 2004
Страна: США
Жанр: Научно-популярный
Продолжительность: 00:52:50
Перевод: Студийный (одноголосый закадровый)
Доп. инфо о переводе: (Ю.Сербин)
Описание: Рассказ о моржах
качество: DVDRip
формат: AVI
Видео: Video: 640x400 (1.60:1), 25 fps, XviD build 50 ~1976 kbps avg, 0.31 bit/pixel
Аудио: Audio: 44.100 kHz, MPEG Layer 3, 2 ch, ~128.00 kbps avg

Код: Выделить всё

Общее
Полное имя                               : H:\34\1\NG Гиганты Арктики.avi
Формат                                   : AVI
Формат/Информация                        : Audio Video Interleave
Размер файла                             : 788 Мбайт
Продолжительность                        : 52 м.
Общий поток                              : 2085 Кбит/сек
Программа кодирования                    : Lavf52.57.1
Видео
Идентификатор                            : 0
Формат                                   : xvid
Идентификатор кодека                     : xvid
Продолжительность                        : 52 м.
Битрейт                                  : 1944 Кбит/сек
Ширина                                   : 640 пикселей
Высота                                   : 400 пикселей
Соотношение сторон                       : 16:10
Частота кадров                           : 25,000 кадров/сек
Бит/(Пиксели*Кадры)                      : 0.304
Размер потока                            : 735 Мбайт (93%)
Аудио
Идентификатор                            : 1
Формат                                   : MPEG Audio
Версия формата                           : Version 1
Профиль формата                          : Layer 3
Режим                                    : Joint stereo
Расширение режима                        : MS Stereo
Идентификатор кодека                     : 55
Идентификатор кодека/Подсказка           : MP3
Продолжительность                        : 52 м.
Вид битрейта                             : Постоянный
Битрейт                                  : 128 Кбит/сек
Каналы                                   : 2 канала
Частота                                  : 44,1 КГц
Метод сжатия                             : С потерями
Размер потока                            : 48,4 Мбайт (6%)
Выравнивание                             : Соединение по промежуткам
Продолжительность промежутка             : 26  мс. (0,65 видеокадр)
Библиотека кодирования                   : LAME3.98.2







http://sendfile.su/1166159
У вас нет необходимых прав для просмотра вложений в этом сообщении.