National Geographic : Лавина - Белая смерть / National Geographic : Avalanche - The White Death (Бари Най / Burry Nye) [1999, Научно-популярный, DVDRip]

Научно-популярные фильмы Национального географического общества
Торрент Сидеров Личеров Размер
torrent_5034784.torrent
0 0 836.18 МБ
Аватара пользователя
Солнышко
Сообщения: 22944
Зарегистрирован: 13 янв 2016, 22:10

National Geographic : Лавина - Белая смерть / National Geographic : Avalanche - The White Death (Бари Най / Burry Nye) [1999, Научно-популярный, DVDRip]

Сообщение Солнышко » 22 мар 2018, 22:09

National Geographic : Лавина-Белая смерть / National Geographic : Avalanche- The White Death
Дата/Год выпуска: 1999
Страна: США
Жанр: Научно-популярный
Продолжительность: 00:54:50
Перевод: Студийный (одноголосый закадровый)
Доп. инфо о переводе: (Ю.Сербин)
Русские субтитры: нет
Режиссер: Барри Нью
Barry Nye
Описание: Рассказ о лавинах
Сэмпл: http://sendfile.su/1133608
качество: DVDRip
формат: AVI
Видео: Video: 640x400 (1.60:1), 25 fps, XviD build 50 ~1976 kbps avg, 0.31 bit/pixel
Аудио: Audio: 44.100 kHz, MPEG Layer 3, 2 ch, ~128.00 kbps avg

Код: Выделить всё

General
Complete name                            : H:\1\NG  Лавина- Белая смерть.avi
Format                                   : AVI
Format/Info                              : Audio Video Interleave
File size                                : 836 MiB
Duration                                 : 55mn 12s
Overall bit rate                         : 2 117 Kbps
Writing application                      : Lavf52.57.1
Video
ID                                       : 0
Format                                   : xvid
Codec ID                                 : xvid
Duration                                 : 55mn 12s
Bit rate                                 : 1 977 Kbps
Width                                    : 640 pixels
Height                                   : 400 pixels
Display aspect ratio                     : 16:10
Frame rate                               : 25.000 fps
Bits/(Pixel*Frame)                       : 0.309
Stream size                              : 781 MiB (93%)
Audio
ID                                       : 1
Format                                   : MPEG Audio
Format version                           : Version 1
Format profile                           : Layer 3
Mode                                     : Joint stereo
Mode extension                           : MS Stereo
Codec ID                                 : 55
Codec ID/Hint                            : MP3
Duration                                 : 55mn 12s
Bit rate mode                            : Constant
Bit rate                                 : 128 Kbps
Channel(s)                               : 2 channels
Sampling rate                            : 44.1 KHz
Compression mode                         : Lossy
Stream size                              : 50.5 MiB (6%)
Alignment                                : Aligned on interleaves
Interleave, duration                     : 26 ms (0.65 video frame)
Writing library                          : LAME3.98.2ЄЄЄЄЄЄЄЄЄЄ








У вас нет необходимых прав для просмотра вложений в этом сообщении.