От колыбели до могилы / Cradle to Grave (Джеймс Товелл / James Tovell) [2016, Документальный, познавательный, здоровье, SATRip]

Научно-популярные фильмы Национального географического общества
Торрент Сидеров Личеров Размер
torrent_5386101.torrent
0 0 1.28 ГБ
Аватара пользователя
Солнышко
Сообщения: 22944
Зарегистрирован: 13 янв 2016, 22:10

От колыбели до могилы / Cradle to Grave (Джеймс Товелл / James Tovell) [2016, Документальный, познавательный, здоровье, SATRip]

Сообщение Солнышко » 22 мар 2018, 22:09

От колыбели до могилы / Cradle to Grave
Дата/Год выпуска: 2016
Страна: США, Pioneer Film and Television Productions
Жанр: Документальный, познавательный, здоровье
Продолжительность: 01:27:25
Перевод: Профессиональный (дублированный)
Режиссер: Джеймс Товелл / James Tovell
Телеканал: National Geographic
Описание: Пользуясь волшебством последних достижений Дэвида Бэрлоу в области визуальных эффектов, мы расскажем вам об устройстве человеческого тела. Вы узнаете о том, как на него влияет внешняя среда, как оно развивается и умирает в этом путешествии с заранее известным финалом, которое мы называет жизнь. Следя за жизнью нашего героя Адама, мы раскроем невероятные изменения и силы, которые проходят все люди от рождения до смерти.
Доп. информация: Авторство релиза - alf62

качество: SATRip
формат: AVI
Видео: 720x400 (1.80:1), 25 fps, XviD build 73 ~1899 kbps avg, 0.26 bit/pixel
Аудио: 48 kHz, AC3 Dolby Digital, 2/0 (L,R) ch, ~192.00 kbps avg

Код: Выделить всё

От.колыбели.до.могилы.2016.XviD.SATRip.alf62.avi
Формат                                   : AVI
Формат/Информация                        : Audio Video Interleave
Размер файла                             : 1,28 Гбайт
Продолжительность                        : 1 ч. 27 м.
Общий поток                              : 2102 Кбит/сек
Программа кодирования                    : VirtualDubMod 1.5.10.3 | www.virtualdub-fr.org || (build 2550/release)
Библиотека кодирования                   : VirtualDubMod build 2550/release
Видео
Идентификатор                            : 0
Формат                                   : MPEG-4 Visual
Профиль формата                          : Advanced Simple@L5
Параметр BVOP формата                    : 2
Параметр QPel формата                    : Нет
Параметр GMC формата                     : Без точки перехода
Параметр матрицы формата                 : Default (MPEG)
Идентификатор кодека                     : XVID
Идентификатор кодека/Подсказка           : XviD
Продолжительность                        : 1 ч. 27 м.
Битрейт                                  : 1900 Кбит/сек
Ширина                                   : 720 пикселей
Высота                                   : 400 пикселей
Соотношение сторон                       : 16:9
Частота кадров                           : 25,000 кадров/сек
Цветовое пространство                    : YUV
Субдискретизация насыщенности            : 4:2:0
Битовая глубина                          : 8 бит
Тип развёртки                            : Прогрессивная
Метод сжатия                             : С потерями
Бит/(Пиксели*Кадры)                      : 0.264
Размер потока                            : 1,16 Гбайт (90%)
Библиотека кодирования                   : XviD 73
Аудио
Идентификатор                            : 1
Формат                                   : AC-3
Формат/Информация                        : Audio Coding 3
Расширение режима                        : CM (complete main)
Параметр Endianness формата              : Big
Идентификатор кодека                     : 2000
Продолжительность                        : 1 ч. 27 м.
Вид битрейта                             : Постоянный
Битрейт                                  : 192 Кбит/сек
Каналы                                   : 2 канала
Расположение каналов                     : Front: L R
Частота                                  : 48,0 КГц
Битовая глубина                          : 16 бит
Метод сжатия                             : С потерями
Размер потока                            : 120 Мбайт (9%)
Выравнивание                             : Разделение по промежуткам
Продолжительность промежутка             : 40  мс. (1,00 видеокадр)
Время предзагрузки промежутка            : 500  мс.

У вас нет необходимых прав для просмотра вложений в этом сообщении.