Пума! / Puma! (Уве Мюллер / Uwe Muller) [2012, Документальный, HDTVRip] National Geographic

Научно-популярные фильмы Национального географического общества
Торрент Сидеров Личеров Размер
torrent_4349149.torrent
0 0 676.27 МБ
Аватара пользователя
Солнышко
Сообщения: 22944
Зарегистрирован: 13 янв 2016, 22:10

Пума! / Puma! (Уве Мюллер / Uwe Muller) [2012, Документальный, HDTVRip] National Geographic

Сообщение Солнышко » 22 мар 2018, 22:09

Пума! / Puma!
Год выпуска: 2012
Страна: США
Студия: NDR Naturfilm-Studio Hamburg Doclihts GMBH
Производство: National Geographic Channel
Жанр: Документальный
Продолжительность: 00:44:59
Перевод: Одноголосый закадровый
Доп. инфо о переводе: Денис Некрасов / АРК·ТВ
Русские субтитры: нет
Режиссер: Уве Мюллер / Uwe Muller
Описание: Этот фильм рассказывает историю одной из самых скромных кошек в мире. Мы наблюдаем за самкой пумы и за ее тремя малышами, за тем, как они учатся у своей мамы, как они подкрадываются к гуанако и как они делаются "невидимыми", когда жертва приближается или когда мама уходит на охоту. Мать-пума должна быть хорошим охотником. Но успех ее охоты необходим не только ее малышам. Кондоры, Южноамериканские серые лисы и другие животные – их выживание также зависит от хорошей охоты пумы…
качество: HDTVRip
формат: AVI
видеокодек: XviD
аудиокодек: MP3
Видео: MPEG-4 Visual, XviD, 720 х 400 (16:9), 25,000 кадров/сек, 1900 Кбит/сек, 0.264 бит/пиксель
Аудио: MPEG Audio Layer 2, 48,0 КГц, 192 Кбит/сек, 2 канала
Автор рипа Пору4ик
Общее
Полное имя : E:\torrent\Пума.avi
Формат : AVI
Формат/Информация : Audio Video Interleave
Размер файла : 676 Мбайт
Продолжительность : 44 м.
Общий поток : 2102 Кбит/сек
Программа кодирования : VirtualDubMod 1.5.10.3 | www.virtualdub-fr.org || (build 2550/release)
Библиотека кодирования : VirtualDubMod build 2550/release
Видео
Идентификатор : 0
Формат : MPEG-4 Visual
Профиль формата : Advanced Simple@L5
Параметр BVOP формата : 2
Параметр QPel формата : Нет
Параметр GMC формата : Без точки перехода
Параметр матрицы формата : Default (MPEG)
Идентификатор кодека : XVID
Идентификатор кодека/Подсказка : XviD
Продолжительность : 44 м.
Битрейт : 1900 Кбит/сек
Ширина : 720 пикселей
Высота : 400 пикселей
Соотношение сторон : 16:9
Частота кадров : 25,000 кадров/сек
Цветовое пространство : YUV
Субдискретизация насыщенности : 4:2:0
Битовая глубина : 8 бит
Тип развёртки : Прогрессивная
Метод сжатия : С потерями
Бит/(Пиксели*Кадры) : 0.264
Размер потока : 611 Мбайт (90%)
Библиотека кодирования : XviD 1.2.1 (UTC 2008-12-04)
Аудио
Идентификатор : 1
Формат : MPEG Audio
Версия формата : Version 1
Профиль формата : Layer 2
Идентификатор кодека : 50
Продолжительность : 44 м.
Вид битрейта : Постоянный
Битрейт : 192 Кбит/сек
Каналы : 2 канала
Частота : 48,0 КГц
Метод сжатия : С потерями
Размер потока : 61,8 Мбайт (9%)
Выравнивание : Соединение по промежуткам
Продолжительность промежутка : 40 мс. (1,00 видеокадр)
Время предзагрузки промежутка : 504 мс.
У вас нет необходимых прав для просмотра вложений в этом сообщении.