Ступени цивилизации. National Geographic "Загадки ДНК: поиски Адама" / National Geographic: DNA Mysteries: Search For Adam (Саймон Бойс, Чарлз По) [2005, Документальный, DVB]

Научно-популярные фильмы Национального географического общества
Торрент Сидеров Личеров Размер
torrent_4369833.torrent
0 0 1.66 ГБ
Аватара пользователя
Солнышко
Сообщения: 22944
Зарегистрирован: 13 янв 2016, 22:10

Ступени цивилизации. National Geographic "Загадки ДНК: поиски Адама" / National Geographic: DNA Mysteries: Search For Adam (Саймон Бойс, Чарлз По) [2005, Документальный, DVB]

Сообщение Солнышко » 22 мар 2018, 22:10

Ступени цивилизации. National Geographic "Загадки ДНК: поиски Адама" / National Geographic: DNA Mysteries: Search For Adam
Год выпуска: 2005
Страна: CША, National Geographic Television & Film Production.
Жанр: Документальный
Продолжительность: 00:50:34
Перевод: Профессиональный одноголосый
Русские субтитры: нет
Режиссер: Саймон Бойс, Чарлз По
Описание: Откуда все мы произошли? Действительно ли мы все являемся потомками Адама? И если он существовал, то кем он был, где жил и на кого он был похож? Это - тайна, которая волнует нас всех, эти вопросы мы задаем себе время от времени, но до сих пор никто не дал испчерпывающего ответа на них. Спенсер Уэллс, ведущий генетик и антрополог при поддержке Национального Географического Общества, предпринял широкомаштабные исследования для поиска предка всех людей - "библейского Адама".
Качество: DVB
Формат: MPEG
Видео кодек: MPEG2
Аудио кодек: MPEG Audio (Version 1) (Layer 2)
Видео: MPEG 2, 720 x 576, 25 fps, 4400 kbps
Аудио: MPEG Audio (Version 1) (Layer 2), 2 Ch, 48 KHz, 192 kbps
Релиз спутникового канала:
General
Complete name : O:\Ступени цивилизации. Загадки ДНК поиски Адама.(2005)_DVB by SLuMeP.mpg
Format : MPEG-PS
File size : 1.66 GiB
Duration : 50mn 34s
Overall bit rate : 4 700 Kbps
Writing library : (c) 1998-2010 Womble Multimedia, Inc. / MPEG Video Wizard DVD 5.0.0.114 (01/2010) / Apr 20 2010
Video
ID : 224 (0xE0)
Format : MPEG Video
Format version : Version 2
Format profile : Main@Main
Format settings, BVOP : Yes
Format settings, Matrix : Default
Duration : 50mn 34s
Bit rate mode : Variable
Bit rate : 4 414 Kbps
Nominal bit rate : 15.0 Mbps
Width : 720 pixels
Height : 576 pixels
Display aspect ratio : 4:3
Frame rate : 25.000 fps
Standard : PAL
Color space : YUV
Chroma subsampling : 4:2:0
Bit depth : 8 bits
Scan type : Interlaced
Scan order : Top Field First
Bits/(Pixel*Frame) : 0.426
Stream size : 1.56 GiB (94%)
Writing library : (c) 1998-2010 Womble Multimedia, Inc. / MPEG Video Wizard DVD 5.0.0.114 (01/2010) / Apr 20 2010
Audio
ID : 192 (0xC0)
Format : MPEG Audio
Format version : Version 1
Format profile : Layer 2
Duration : 50mn 34s
Bit rate mode : Constant
Bit rate : 192 Kbps
Channel(s) : 2 channels
Sampling rate : 48.0 KHz
Stream size : 69.4 MiB (4%)
У вас нет необходимых прав для просмотра вложений в этом сообщении.