National Geographic. Панорама 360° Объект всемирного наследия (1 сезон 3 серии из 7) 2012 / Access 360° World Heritage [2012, Документальный, HDTVRip]

Научно-популярные фильмы Национального географического общества
Торрент Сидеров Личеров Размер
torrent_4370958.torrent
0 0 1.88 ГБ
Аватара пользователя
Солнышко
Сообщения: 22944
Зарегистрирован: 13 янв 2016, 22:10

National Geographic. Панорама 360° Объект всемирного наследия (1 сезон 3 серии из 7) 2012 / Access 360° World Heritage [2012, Документальный, HDTVRip]

Сообщение Солнышко » 22 мар 2018, 22:10

Панорама 360° Объект всемирного наследия ( 1 сезон 3 серии из 7) 2012 / Access 360° World Heritage
Год выпуска: 2012
Страна: США, National Geographic
Жанр: Документальный
Продолжительность: ~ 00:44:59
Перевод: Профессиональный (одноголосый) студия АРК ТВ
Русские субтитры: нет
Описание:Что нужно для того, чтобы защитить самые известные места в мире? Как вы поддерживаете здания, которым тысячи лет? Как вы защищаете исторические структуры, которые содержат артефакты, стоящие миллионы долларов? В этой новой серии, мы берем Вас на эксклюзивный, все-доступа тур за кулисы избранных объектов Всемирного наследия ЮНЕСКО, чтобы осветить работу, которая идет на эксплуатацию и обслуживание этих заветных памятников, зданий, национальных парков и даже целых городов, гарантируя, что они выживут в наилучших условиях для будущих поколений.
Объекты Всемирного наследия ЮНЕСКО – это завещание изобретательности человеческой цивилизации и красоты нашего природного мира. Места объектов распространены во всем мире и включают диапазон культурных и национальных чудес от древних пирамид до восточных дворцов и даже Тихого океана. Тем не менее, объекты Всемирного наследия разделяют одну общую черту – они любой ценой должны быть защищены и сохранены для будущего с особой тщательностью и заботой.
Каждый час, выдвигая на первый план единственное место, сосредотачиваемся, прежде всего, на людях в этих исторических памятниках, поскольку они уравновешивают давление сохранности с потребностью сохранять места открытыми и доступными для всех. Мы даем зрителям закулисный проход в мир этих смотрителей. От охраны сокровищ Тадж-Махала к управлению загрязнением в Большом Барьерном рифе! Наши камеры изо дня в день захватывали операции, специальные проекты по сохранению и даже великие частные события. Через руководителей, реставраторов, гидов, садовников и преданных специалистов по животным, наши зрители получают исключительный взгляд в области, не открытые для общественности – секретные проходы, подземные туннели и сокровищницы - домой к тысячам лет истории и миллионно долларовой ценности экспонатов. Мы изучим истории позади каждого местоположения – от позолоченных и кровавых историй до естественных сил, которые делают эти места незаменимыми.
качество: HDTVRip
формат: AVI
видеокодек: XviD
аудиокодек: AC3
Видео: XviD. 720x400 / (16:9) 25.00fps ~ 1595 Кбит/сек
Аудио: Русский, AC3, 48 kHz, 2 ch, 192 Кбит/с
Аудио: Английский AC3, 48 kHz, 2 ch, 192 Кбит/с
Официальный сайт
Релиз
General
Complete name : E:\Видео\Панорама 360° Объект всемирного наследия ( 1 сезон 3 серии из 7) 2012 HDTVRip\2. Панорама 360° Объект всемирного наследия -США.avi
Format : AVI
Format/Info : Audio Video Interleave
File size : 640 MiB
Duration : 44mn 58s
Overall bit rate : 1 989 Kbps
Writing application : VirtualDubMod 1.5.10.2 (build 2540/release)
Writing library : VirtualDubMod build 2540/release
Video
ID : 0
Format : MPEG-4 Visual
Format profile : Advanced Simple@L5
Format settings, BVOP : 1
Format settings, QPel : No
Format settings, GMC : No warppoints
Format settings, Matrix : Default (H.263)
Codec ID : XVID
Codec ID/Hint : XviD
Duration : 44mn 58s
Bit rate : 1 590 Kbps
Width : 720 pixels
Height : 400 pixels
Display aspect ratio : 16:9
Frame rate : 25.000 fps
Color space : YUV
Chroma subsampling : 4:2:0
Bit depth : 8 bits
Scan type : Progressive
Compression mode : Lossy
Bits/(Pixel*Frame) : 0.221
Stream size : 512 MiB (80%)
Writing library : XviD 1.2.1 (UTC 2008-12-04)
Audio #1
ID : 1
Format : AC-3
Format/Info : Audio Coding 3
Mode extension : CM (complete main)
Format settings, Endianness : Big
Codec ID : 2000
Duration : 44mn 58s
Bit rate mode : Constant
Bit rate : 192 Kbps
Channel(s) : 2 channels
Channel positions : Front: L R
Sampling rate : 48.0 KHz
Bit depth : 16 bits
Compression mode : Lossy
Stream size : 61.8 MiB (10%)
Alignment : Split accross interleaves
Interleave, duration : 40 ms (1.00 video frame)
Interleave, preload duration : 500 ms
Audio #2
ID : 2
Format : AC-3
Format/Info : Audio Coding 3
Mode extension : CM (complete main)
Format settings, Endianness : Big
Codec ID : 2000
Duration : 44mn 58s
Bit rate mode : Constant
Bit rate : 192 Kbps
Channel(s) : 2 channels
Channel positions : Front: L R
Sampling rate : 48.0 KHz
Bit depth : 16 bits
Compression mode : Lossy
Stream size : 61.8 MiB (10%)
Alignment : Split accross interleaves
Interleave, duration : 40 ms (1.00 video frame)
Interleave, preload duration : 500 ms
General
Complete name : E:\Видео\Панорама 360° Объект всемирного наследия ( 1 сезон 3 серии из 7) 2012 HDTVRip\5. Панорама 360° Объект всемирного наследия - Килиманджаро.avi
Format : AVI
Format/Info : Audio Video Interleave
File size : 643 MiB
Duration : 44mn 59s
Overall bit rate : 1 998 Kbps
Writing application : VirtualDubMod 1.5.10.2 (build 2540/release)
Writing library : VirtualDubMod build 2540/release
Video
ID : 0
Format : MPEG-4 Visual
Format profile : Advanced Simple@L5
Format settings, BVOP : 1
Format settings, QPel : No
Format settings, GMC : No warppoints
Format settings, Matrix : Default (H.263)
Codec ID : XVID
Codec ID/Hint : XviD
Duration : 44mn 59s
Bit rate : 1 600 Kbps
Width : 720 pixels
Height : 400 pixels
Display aspect ratio : 16:9
Frame rate : 25.000 fps
Color space : YUV
Chroma subsampling : 4:2:0
Bit depth : 8 bits
Scan type : Progressive
Compression mode : Lossy
Bits/(Pixel*Frame) : 0.222
Stream size : 515 MiB (80%)
Writing library : XviD 1.2.1 (UTC 2008-12-04)
Audio #1
ID : 1
Format : AC-3
Format/Info : Audio Coding 3
Mode extension : CM (complete main)
Format settings, Endianness : Big
Codec ID : 2000
Duration : 44mn 59s
Bit rate mode : Constant
Bit rate : 192 Kbps
Channel(s) : 2 channels
Channel positions : Front: L R
Sampling rate : 48.0 KHz
Bit depth : 16 bits
Compression mode : Lossy
Stream size : 61.8 MiB (10%)
Alignment : Split accross interleaves
Interleave, duration : 40 ms (1.00 video frame)
Interleave, preload duration : 500 ms
Audio #2
ID : 2
Format : AC-3
Format/Info : Audio Coding 3
Mode extension : CM (complete main)
Format settings, Endianness : Big
Codec ID : 2000
Duration : 44mn 59s
Bit rate mode : Constant
Bit rate : 192 Kbps
Channel(s) : 2 channels
Channel positions : Front: L R
Sampling rate : 48.0 KHz
Bit depth : 16 bits
Compression mode : Lossy
Stream size : 61.8 MiB (10%)
Alignment : Split accross interleaves
Interleave, duration : 40 ms (1.00 video frame)
Interleave, preload duration : 500 ms
General
Complete name : E:\Видео\Панорама 360° Объект всемирного наследия ( 1 сезон 3 серии из 7) 2012 HDTVRip\6. Панорама 360° Объект всемирного наследия - Каппадокия.avi
Format : AVI
Format/Info : Audio Video Interleave
File size : 642 MiB
Duration : 44mn 59s
Overall bit rate : 1 994 Kbps
Writing application : VirtualDubMod 1.5.10.2 (build 2540/release)
Writing library : VirtualDubMod build 2540/release
Video
ID : 0
Format : MPEG-4 Visual
Format profile : Advanced Simple@L5
Format settings, BVOP : 1
Format settings, QPel : No
Format settings, GMC : No warppoints
Format settings, Matrix : Default (H.263)
Codec ID : XVID
Codec ID/Hint : XviD
Duration : 44mn 59s
Bit rate : 1 595 Kbps
Width : 720 pixels
Height : 400 pixels
Display aspect ratio : 16:9
Frame rate : 25.000 fps
Color space : YUV
Chroma subsampling : 4:2:0
Bit depth : 8 bits
Scan type : Progressive
Compression mode : Lossy
Bits/(Pixel*Frame) : 0.222
Stream size : 513 MiB (80%)
Writing library : XviD 1.2.1 (UTC 2008-12-04)
Audio #1
ID : 1
Format : AC-3
Format/Info : Audio Coding 3
Mode extension : CM (complete main)
Format settings, Endianness : Big
Codec ID : 2000
Duration : 44mn 59s
Bit rate mode : Constant
Bit rate : 192 Kbps
Channel(s) : 2 channels
Channel positions : Front: L R
Sampling rate : 48.0 KHz
Bit depth : 16 bits
Compression mode : Lossy
Stream size : 61.8 MiB (10%)
Alignment : Split accross interleaves
Interleave, duration : 40 ms (1.00 video frame)
Interleave, preload duration : 500 ms
Audio #2
ID : 2
Format : AC-3
Format/Info : Audio Coding 3
Mode extension : CM (complete main)
Format settings, Endianness : Big
Codec ID : 2000
Duration : 44mn 59s
Bit rate mode : Constant
Bit rate : 192 Kbps
Channel(s) : 2 channels
Channel positions : Front: L R
Sampling rate : 48.0 KHz
Bit depth : 16 bits
Compression mode : Lossy
Stream size : 61.8 MiB (10%)
Alignment : Split accross interleaves
Interleave, duration : 40 ms (1.00 video frame)
Interleave, preload duration : 500 ms
Подарок Соединенным Штатам из Франции и теперь объект Всемирного наследия, Статуя Свободы – международная эмблема свободы и освобождения. Но, за последние десять лет она была закрыта, так как считалась небезопасной в мире постдиннадцатого сентября ( in a post-9/11 – после 11 сентября). Парковая служба U-S и строительные команды теперь трудятся, чтобы вновь открыть эту культовую статую. Они ремонтируют ее интерьер, таким образом, чтобы люди могли получить быстрый выход, если есть нападение. Но с часами, тикающими ко дню открытия, это – огромное обязательство. Извлекая уроки из теракта Всемирного торгового центра, они работают, чтобы гарантировать безопасность посетителей и гарантировать, что один из самых величайших символов Америки продолжает стоять высокий по нью-йоркской гавани.
Есть особое место в сердце тропического леса Амазонки с экосистемами, настолько уникальными и по биоразнообразию настолько богатое, что ООН объявила его объектом Всемирного наследия.
Тадж-Махал мог быть в неизбежной опасности? Это – один из самых грандиозных произведений архитектуры на планете.
В Восточной Африке один из самых культовых гор в мире находится на грани катастрофы. Это – глобальное потепление или проблема намного ближе к дому?
Начинается грандиозная битва между природой, традициями и современностью. В эпицентре один из самых фантастических пейзажей на планете – Турецкая провинция под названием Каппадокия. Чудеса природы, которым угрожает эрозия, теперь могут исчезнуть еще быстрее. Это объект Всемирного Наследия ЮНЕСКО! И нужно восстановить шаткое равновесие, пока матушка-природа и нашествие туристов не обратили его в пыль!
При каждом добавлении создаётся новый торрент. Чтобы начать докачку нового выпуска, пользователям необходимо сделать следующее:
● остановить скачивание;
● удалить старый торрент у себя из клиента (старые выпуски удалять не надо);
● скачать новый торрент и запустить его у себя в клиенте вместо старого, при этом указать клиенту путь в старую папку куда и должно происходить скачивание новых выпусков;
● ваш клиент при запуске должен произвести хеширование (проверку) старой папки (если не производит сам - помогите ему сделать это), и будет докачивать только те выпуски, которых у вас ещё нет. Старые выпуски при этом не удаляются, а продолжают раздаваться!
● Eсли вы уже удалили старые выпуски, то предотвратить повторную закачку старых выпусков можно, отжав галочку в соответсвующих местах при запуске нового торрента.
У вас нет необходимых прав для просмотра вложений в этом сообщении.