Затонувшая субмарина фашистов / Nazi Sunken Sub (National Geographic) [2012, Документальный, SATRip]

Научно-популярные фильмы Национального географического общества
Торрент Сидеров Личеров Размер
torrent_4654702.torrent
0 0 593.48 МБ
Аватара пользователя
Солнышко
Сообщения: 22944
Зарегистрирован: 13 янв 2016, 22:10

Затонувшая субмарина фашистов / Nazi Sunken Sub (National Geographic) [2012, Документальный, SATRip]

Сообщение Солнышко » 22 мар 2018, 22:10

Затонувшая субмарина фашистов / Nazi Sunken Sub

Год выпуска: 2012
Жанр: Документальный
Продолжительность: 00:44:57
Перевод: Профессиональный (одноголосый)
Выпущено: Германия
Режиссер: National Geographic
Описание: В 1945 загадочно исчезла фашистская подлодка U-745. Сейчас группа исследователей отправляется на дно Балтики, чтобы узнать, что же произошло.
Раздача от группы:
Тип релиза: SATRip
Контейнер: AVI
Видео: XviD, 720x400, 1700 kbps
Аудио: Русский: MP3, 2ch, 128 kbps
Субтитры: нет
Сэмпл
Общее
Полное имя : D:\Фильмы\Раздачи\Nazi.sunken.sub.avi
Формат : AVI
Формат/Информация : Audio Video Interleave
Размер файла : 593 Мбайт
Продолжительность : 44 м.
Общий поток : 1846 Кбит/сек
Видео
Идентификатор : 0
Формат : MPEG-4 Visual
Параметр BVOP формата : Да
Параметр QPel формата : Нет
Параметр GMC формата : Без точки перехода
Параметр матрицы формата : Default (H.263)
Идентификатор кодека : DX50
Идентификатор кодека/Подсказка : DivX 5
Продолжительность : 44 м.
Битрейт : 1700 Кбит/сек
Ширина : 720 пикселей
Высота : 400 пикселей
Соотношение сторон : 16:9
Частота кадров : 25,000 кадров/сек
Цветовое пространство : YUV
Субдискретизация насыщенности : 4:2:0
Битовая глубина : 8 бит
Тип развёртки : Прогрессивная
Метод сжатия : С потерями
Бит/(Пиксели*Кадры) : 0.236
Размер потока : 547 Мбайт (92%)
Библиотека кодирования : Intel(R) MPEG-4 encoder based on Intel(R) IPP 6.1 build 137.20[6.1.137.763]
Аудио
Идентификатор : 1
Формат : MPEG Audio
Версия формата : Version 1
Профиль формата : Layer 3
Режим : Joint stereo
Расширение режима : MS Stereo
Идентификатор кодека : 55
Идентификатор кодека/Подсказка : MP3
Продолжительность : 44 м.
Вид битрейта : Постоянный
Битрейт : 128 Кбит/сек
Каналы : 2 канала
Частота : 48,0 КГц
Метод сжатия : С потерями
Размер потока : 41,2 Мбайт (7%)
Выравнивание : Соединение по промежуткам
Продолжительность промежутка : 24 мс. (0,60 видеокадр)
Библиотека кодирования : LAME3.98.2
У вас нет необходимых прав для просмотра вложений в этом сообщении.