National Geographic : Невероятные превращения / National Geographic : The body changers [2000, Научно-популярный, DVDRip]

Научно-популярные фильмы Национального географического общества
Торрент Сидеров Личеров Размер
torrent_4636898.torrent
0 0 652.48 МБ
Аватара пользователя
Солнышко
Сообщения: 22944
Зарегистрирован: 13 янв 2016, 22:10

National Geographic : Невероятные превращения / National Geographic : The body changers [2000, Научно-популярный, DVDRip]

Сообщение Солнышко » 22 мар 2018, 22:10

National Geographic : Невероятные превращения / National Geographic : The body changers
Год выпуска: 2000
Страна: США
Жанр: Научно-популярный
Продолжительность: 00:55:37
Перевод: Студийный (одноголосый закадровый) (Ю.Сербин)
Русские субтитры: нет
Описание: Рассказ о том как наше тело меняется со временем ...
качество: DVDRip
формат: AVI
Видео: Video: 640x480 (1.33:1), 25 fps, XviD build 50 ~1999 kbps avg, 0.26 bit/pixe
Аудио: Audio: 44.100 kHz, MPEG Layer 3, 2 ch, ~128.00 kbps avg
General
Complete name : H:\NG Невероятные превращения.avi
Format : AVI
Format/Info : Audio Video Interleave
File size : 652 MiB
Duration : 55mn 37s
Overall bit rate : 1 640 Kbps
Writing application : Lavf52.57.1
Video
ID : 0
Format : xvid
Codec ID : xvid
Duration : 55mn 37s
Bit rate : 1 500 Kbps
Width : 640 pixels
Height : 480 pixels
Display aspect ratio : 4:3
Frame rate : 25.000 fps
Bits/(Pixel*Frame) : 0.195
Stream size : 597 MiB (91%)
Audio
ID : 1
Format : MPEG Audio
Format version : Version 1
Format profile : Layer 3
Mode : Joint stereo
Mode extension : MS Stereo
Codec ID : 55
Codec ID/Hint : MP3
Duration : 55mn 37s
Bit rate mode : Constant
Bit rate : 128 Kbps
Channel(s) : 2 channels
Sampling rate : 44.1 KHz
Compression mode : Lossy
Stream size : 50.9 MiB (8%)
Alignment : Aligned on interleaves
Interleave, duration : 26 ms (0.65 video frame)







Сэмпл http:// СПАМ
У вас нет необходимых прав для просмотра вложений в этом сообщении.