National Geographic : Отважные операторы / National Geographic : Cameramen who Dared [1988, Научно-популярный, DVDRip]

Научно-популярные фильмы Национального географического общества
Торрент Сидеров Личеров Размер
torrent_4647115.torrent
0 0 595.68 МБ
Аватара пользователя
Солнышко
Сообщения: 22944
Зарегистрирован: 13 янв 2016, 22:10

National Geographic : Отважные операторы / National Geographic : Cameramen who Dared [1988, Научно-популярный, DVDRip]

Сообщение Солнышко » 22 мар 2018, 22:14

National Geographic : Отважные операторы / National Geographic : Cameramen who Dared
Год выпуска: 1988
Страна: США
Жанр: Научно-популярный
Продолжительность: 00:50:45
Перевод: Студийный (одноголосый закадровый) (Ю.Сербин)
Русские субтитры: нет
Описание: Рассказ о самых опасных съемках в истории
качество: DVDRip
формат: AVI
Видео: Video: 640x480 (1.33:1), 25 fps, XviD build 50 ~1999 kbps avg, 0.26 bit/pixe
Аудио: Audio: 44.100 kHz, MPEG Layer 3, 2 ch, ~128.00 kbps avg
General
Complete name : H:\NG Отважные операторы.avi
Format : AVI
Format/Info : Audio Video Interleave
File size : 596 MiB
Duration : 50mn 45s
Overall bit rate : 1 641 Kbps
Writing application : Lavf52.57.1
Video
ID : 0
Format : xvid
Codec ID : xvid
Duration : 50mn 45s
Bit rate : 1 500 Kbps
Width : 640 pixels
Height : 480 pixels
Display aspect ratio : 4:3
Frame rate : 25.000 fps
Bits/(Pixel*Frame) : 0.195
Stream size : 545 MiB (91%)
Audio
ID : 1
Format : MPEG Audio
Format version : Version 1
Format profile : Layer 3
Mode : Joint stereo
Mode extension : MS Stereo
Codec ID : 55
Codec ID/Hint : MP3
Duration : 50mn 45s
Bit rate mode : Constant
Bit rate : 128 Kbps
Channel(s) : 2 channels
Sampling rate : 44.1 KHz
Compression mode : Lossy
Stream size : 46.5 MiB (8%)
Alignment : Aligned on interleaves
Interleave, duration : 26 ms (0.65 video frame)








Сэмпл http:// СПАМ
У вас нет необходимых прав для просмотра вложений в этом сообщении.