Инстинкт выживания [сезон 1, серии 1, 2, 7, 8 из 9] / Primal Survivor (Энтони Баруэлл, Розалинд Бэйн, Бесс Манлей и др. / Anthony Barwell, Rosalind Bain, Bess Manley et al.) [2015, Документальный, DVB-AVC]

Научно-популярные фильмы Национального географического общества
Торрент Сидеров Личеров Размер
torrent_5240299.torrent
0 0 3.12 ГБ
Аватара пользователя
Солнышко
Сообщения: 22944
Зарегистрирован: 13 янв 2016, 22:10

Инстинкт выживания [сезон 1, серии 1, 2, 7, 8 из 9] / Primal Survivor (Энтони Баруэлл, Розалинд Бэйн, Бесс Манлей и др. / Anthony Barwell, Rosalind Bain, Bess Manley et al.) [2015, Документальный, DVB-AVC]

Сообщение Солнышко » 22 мар 2018, 22:14

Инстинкт выживания [сезон 1, cерии 1, 2, 7, 8 из 9] / Primal Survivor
UPDATE: добавлен эпизод 7 "Горная болезнь"
UPDATE 2: добавлен эпизод 2 "Жестокие джунгли"
Дата/Год выпуска: 2015
Страна: США / Великобритания
Жанр: Документальный
Продолжительность: ~00:44:00 на серию
Перевод: Студийный (одноголосый закадровый)
Доп. инфо о переводе: студия "Велес" - Сергей Куприянов
Русские субтитры: нет
Оригинальная аудиодорожка: нет
Режиссер: Энтони Баруэлл, Розалинд Бэйн, Бесс Манлей и др. / Anthony Barwell, Rosalind Bain, Bess Manley et al.
Телеканал: National Geographic
Описание: Хэйзен Оудел - журналист и инструктор по выживанию в дикой природе. В этом фильме он отправляется в самые негостеприимные уголки мира, чтобы применить навыки, которым его научили местные обитатели.
Сэмпл: http:// СПАМ
качество: DVB
формат: MKV
Видео: 1024x576@720x576 (16:9 PAL Anamorphic), H.264 [AVC SD] Level 3, 25 fps, Interlaced, ABR 2700 kbps
Аудио: Russian (VO "Велес"), MPEG1-Layer 2, 48000 Hz, 2.0ch Stereo, CBR 192 kbps
Легенда о каннибалах
Жестокие джунгли
Убийственный холод
Ревущий поток
Опасное восхождение
Воды смерти
Горная болезнь
Выжженная земля
[*]Полный курс выживания

Код: Выделить всё

General
Unique ID                                : 326149066153451088746058496429024211810 (0xF55E067901399E01F4E3825B5405F362)
Complete name                            : 01 - Легенда о каннибалах.mkv
Format                                   : Matroska
Format version                           : Version 4 / Version 2
File size                                : 903 MiB
Duration                                 : 44mn 25s
Overall bit rate                         : 2 841 Kbps
Encoded date                             : UTC 2016-06-11 15:50:49
Writing application                      : mkvmerge v9.2.0 ('Photograph') 64bit
Writing library                          : libebml v1.3.3   libmatroska v1.4.4
DURATION                                 : 00:46:12.840000000
NUMBER_OF_FRAMES                         : 111061
NUMBER_OF_BYTES                          : 63971136
_STATISTICS_WRITING_APP                  : mkvmerge v9.2.0 ('Photograph') 64bit
_STATISTICS_WRITING_DATE_UTC             : 2016-06-11 15:50:49
_STATISTICS_TAGS                         : BPS DURATION NUMBER_OF_FRAMES NUMBER_OF_BYTES
Video
ID                                       : 1
Format                                   : AVC
Format/Info                              : Advanced Video Codec
Format profile                           : Main@L3.0
Format settings, CABAC                   : Yes
Format settings, ReFrames                : 4 frames
Codec ID                                 : V_MPEG4/ISO/AVC
Duration                                 : 44mn 25s
Bit rate                                 : 2 593 Kbps
Width                                    : 720 pixels
Height                                   : 576 pixels
Display aspect ratio                     : 16:9
Original display aspect ratio            : 16:9
Frame rate mode                          : Constant
Frame rate                               : 25.000 fps
Standard                                 : Component
Color space                              : YUV
Chroma subsampling                       : 4:2:0
Bit depth                                : 8 bits
Scan type                                : Interlaced
Scan order                               : Top Field First
Bits/(Pixel*Frame)                       : 0.250
Stream size                              : 824 MiB (91%)
Default                                  : Yes
Forced                                   : No
Color primaries                          : BT.601 PAL
Transfer characteristics                 : BT.470 System B, BT.470 System G
Matrix coefficients                      : BT.601
Audio
ID                                       : 2
Format                                   : MPEG Audio
Format version                           : Version 1
Format profile                           : Layer 2
Mode                                     : Joint stereo
Mode extension                           : Intensity Stereo   MS Stereo
Codec ID                                 : A_MPEG/L2
Codec ID/Hint                            : MP2
Duration                                 : 44mn 25s
Bit rate mode                            : Constant
Bit rate                                 : 192 Kbps
Channel(s)                               : 2 channels
Sampling rate                            : 48.0 KHz
Compression mode                         : Lossy
Delay relative to video                  : 5ms
Stream size                              : 61.0 MiB (7%)
Title                                    : Russian VO (студия "Велес") - Сергей Куприянов
Language                                 : Russian
Default                                  : Yes
Forced                                   : No

Код: Выделить всё

General
Unique ID                                : 58331479554085759512319181424387888069 (0x2BE23BFC3901117329990A5694EB13C5)
Complete name                            : 08 - Выжженная земля.mkv
Format                                   : Matroska
Format version                           : Version 4 / Version 2
File size                                : 691 MiB
Duration                                 : 44mn 24s
Overall bit rate                         : 2 174 Kbps
Encoded date                             : UTC 2016-06-11 16:04:15
Writing application                      : mkvmerge v9.2.0 ('Photograph') 64bit
Writing library                          : libebml v1.3.3   libmatroska v1.4.4
DURATION                                 : 00:46:11.112000000
NUMBER_OF_FRAMES                         : 111023
NUMBER_OF_BYTES                          : 63949248
_STATISTICS_WRITING_APP                  : mkvmerge v9.2.0 ('Photograph') 64bit
_STATISTICS_WRITING_DATE_UTC             : 2016-06-11 16:04:15
_STATISTICS_TAGS                         : BPS DURATION NUMBER_OF_FRAMES NUMBER_OF_BYTES
Video
ID                                       : 1
Format                                   : AVC
Format/Info                              : Advanced Video Codec
Format profile                           : Main@L3.0
Format settings, CABAC                   : Yes
Format settings, ReFrames                : 4 frames
Codec ID                                 : V_MPEG4/ISO/AVC
Duration                                 : 44mn 24s
Bit rate                                 : 1 939 Kbps
Width                                    : 720 pixels
Height                                   : 576 pixels
Display aspect ratio                     : 16:9
Original display aspect ratio            : 16:9
Frame rate mode                          : Constant
Frame rate                               : 25.000 fps
Standard                                 : Component
Color space                              : YUV
Chroma subsampling                       : 4:2:0
Bit depth                                : 8 bits
Scan type                                : Interlaced
Scan order                               : Top Field First
Bits/(Pixel*Frame)                       : 0.187
Stream size                              : 616 MiB (89%)
Default                                  : Yes
Forced                                   : No
Color primaries                          : BT.601 PAL
Transfer characteristics                 : BT.470 System B, BT.470 System G
Matrix coefficients                      : BT.601
Audio
ID                                       : 2
Format                                   : MPEG Audio
Format version                           : Version 1
Format profile                           : Layer 2
Mode                                     : Joint stereo
Mode extension                           : Intensity Stereo   MS Stereo
Codec ID                                 : A_MPEG/L2
Codec ID/Hint                            : MP2
Duration                                 : 44mn 24s
Bit rate mode                            : Constant
Bit rate                                 : 192 Kbps
Channel(s)                               : 2 channels
Sampling rate                            : 48.0 KHz
Compression mode                         : Lossy
Delay relative to video                  : 21ms
Stream size                              : 61.0 MiB (9%)
Title                                    : Russian VO (студия "Велес") - Сергей Куприянов
Language                                 : Russian
Default                                  : Yes
Forced                                   : No

У вас нет необходимых прав для просмотра вложений в этом сообщении.