Дикая Венеция / Wild Venice (Клаус Штейндль / Klaus Steindl) [2014, Документальный, HDTVRip]

Научно-популярные фильмы Национального географического общества
Торрент Сидеров Личеров Размер
torrent_5353942.torrent
0 0 704.13 МБ
Аватара пользователя
Солнышко
Сообщения: 22944
Зарегистрирован: 13 янв 2016, 22:10

Дикая Венеция / Wild Venice (Клаус Штейндль / Klaus Steindl) [2014, Документальный, HDTVRip]

Сообщение Солнышко » 22 мар 2018, 22:15

Дикая Венеция / Wild Venice

Год выпуска: 2014
Страна: Австрия
Жанр: Документальный
Канал:
Продолжительность: 00:43:58
Перевод: Профессиональный (дублированный) Студия "Велес" (Борис Хасанов)
Режиссер: Клаус Штейндль / Klaus Steindl
Субтитры: нет
Описание: Венеция - город на воде. Красота и романтика этого места привлекают миллионы посетителей каждый год. Но стоит немного отклониться от популярных туристических маршрутов и перед вами предстанет совершенно иная Венеция населённая удивительными существами. В этой программе мы сможем узнать Венецию, которую немногим удалось повидать. Город, живущей поразительной двойной жизнью. Этот водный мир полон тайных мест и диких существ с которыми большинство сторонних наблюдателей никогда не сталкивались. В небесах, на побережье и каналах обитают исконные "венецианцы", которые населяют каждый потаённый уголок города и лагуны. Дикая Венеция их родной дом.
За исходник спасибо Vicman.
Тип релиза: HDTVRip
Контейнер: AVI
Видео: 688x384 (16:9), 25.000 fps, XviD, ~2038 kbps avg
Аудио: 48 kHz, MP3, 2/0 (L,R) ch, ~192 kbps
Сэмпл
Общее
Полное имя : D:\Movies\Wild Venice HDTVRip.2014.[Aids].avi
Формат : AVI
Формат/Информация : Audio Video Interleave
Размер файла : 704 Мбайт
Продолжительность : 43 м.
Общий поток : 2239 Кбит/сек
Программа кодирования : VirtualDubMod 1.5.10.3 | www.virtualdub-fr.org || (build 2550/release)
Библиотека кодирования : VirtualDubMod build 2550/release
Видео
Идентификатор : 0
Формат : MPEG-4 Visual
Профиль формата : Advanced Simple@L5
Параметр BVOP формата : 1
Параметр QPel формата : Нет
Параметр GMC формата : Без точки перехода
Параметр матрицы формата : Default (H.263)
Идентификатор кодека : XVID
Идентификатор кодека/Подсказка : XviD
Продолжительность : 43 м.
Битрейт : 2038 Кбит/сек
Ширина : 688 пикселей
Высота : 384 пикселя
Соотношение сторон : 16:9
Частота кадров : 25,000 кадров/сек
Цветовое пространство : YUV
Субдискретизация насыщенности : 4:2:0
Битовая глубина : 8 бит
Тип развёртки : Прогрессивная
Метод сжатия : С потерями
Бит/(Пиксели*Кадры) : 0.309
Размер потока : 641 Мбайт (91%)
Библиотека кодирования : XviD 1.2.1 (UTC 2008-12-04)
Аудио
Идентификатор : 1
Формат : MPEG Audio
Версия формата : Version 1
Профиль формата : Layer 3
Идентификатор кодека : 55
Идентификатор кодека/Подсказка : MP3
Продолжительность : 43 м.
Вид битрейта : Постоянный
Битрейт : 192 Кбит/сек
Каналы : 2 канала
Частота : 48,0 КГц
Метод сжатия : С потерями
Размер потока : 60,4 Мбайт (9%)
Выравнивание : Соединение по промежуткам
Продолжительность промежутка : 40 мс. (1,00 видеокадр)
Время предзагрузки промежутка : 504 мс.
Библиотека кодирования : LAME3.99r
Настройки программы : -m s -V 4 -q 0 -lowpass 18.6 -b 192
Релиз группы:
У вас нет необходимых прав для просмотра вложений в этом сообщении.