Царство океанов / The Kingdom Of The Oceans (4 серии / ?) (AMERICAN HISTORY) [2012, Документальный, IPTVRip, SATRip]

Научно-популярные фильмы Национального географического общества
Торрент Сидеров Личеров Размер
torrent_4443911.torrent
0 0 2.76 ГБ
Аватара пользователя
Солнышко
Сообщения: 22944
Зарегистрирован: 13 янв 2016, 22:10

Царство океанов / The Kingdom Of The Oceans (4 серии / ?) (AMERICAN HISTORY) [2012, Документальный, IPTVRip, SATRip]

Сообщение Солнышко » 22 мар 2018, 22:16

Царство океанов / The Kingdom Of The Oceans
4 серии
Год выпуска: 2012
Страна: США
Жанр: Документальный
Продолжительность: 00:44:55
Перевод: Одноголосый закадровый
Русские субтитры: нет
Режиссер: AMERICAN HISTORY
Описание: История существования морских существ началась за 3 миллиарда лет до того, как животные ступили на землю. Программа погружает вас в царство океана с помощью самого современного оборудования. Вы сможете погрузиться тропические воды и ледовитый океан, прибрежные заливы и открытое море...

качество: IPTVRip, SATRip.
формат: AVI
видеокодек: XviD
аудиокодек: MP3
Видео: 704x400, 720x400 (1.76:1), 25 fps, XviD build 46 ~2027 kbps avg, 0.29 bit/pixel
Аудио: 48 kHz, MPEG Layer 3, 2 ch, ~128.00 kbps avg
Царство океанов. Гиганты морских глубин
Царство океанов. Рай для хищников
Царство океанов. Песчаные войны
Царство океанов. Лёд и пламень
General
Complete name : C:\Documents and Settings\Mersicc\Мои документы\Мои видеозаписи\The Kingdom Of The Oceans\Царство океанов. Песчаные войны.avi
Format : AVI
Format/Info : Audio Video Interleave
File size : 695 MiB
Duration : 44mn 58s
Overall bit rate : 2 160 Kbps
Video
ID : 0
Format : MPEG-4 Visual
Format profile : Advanced Simple@L5
Format settings, BVOP : 1
Format settings, QPel : No
Format settings, GMC : No warppoints
Format settings, Matrix : Default (MPEG)
Codec ID : XVID
Codec ID/Hint : XviD
Duration : 44mn 58s
Bit rate : 2 027 Kbps
Width : 704 pixels
Height : 400 pixels
Display aspect ratio : 16:9
Frame rate : 25.000 fps
Color space : YUV
Chroma subsampling : 4:2:0
Bit depth : 8 bits
Scan type : Progressive
Compression mode : Lossy
Bits/(Pixel*Frame) : 0.288
Stream size : 652 MiB (94%)
Writing library : XviD 1.1.2 (UTC 2006-11-01)
Audio
ID : 1
Format : MPEG Audio
Format version : Version 1
Format profile : Layer 3
Mode : Joint stereo
Mode extension : MS Stereo
Codec ID : 55
Codec ID/Hint : MP3
Duration : 44mn 58s
Bit rate mode : Constant
Bit rate : 128 Kbps
Channel(s) : 2 channels
Sampling rate : 48.0 KHz
Compression mode : Lossy
Stream size : 41.2 MiB (6%)
Alignment : Aligned on interleaves
Interleave, duration : 864 ms (21.61 video frames)
Interleave, preload duration : 216 ms
Title : audio
Writing library : LAME3.97
Encoding settings : -m j -V 4 -q 0 -lowpass 17 -b 128

У вас нет необходимых прав для просмотра вложений в этом сообщении.