National Geographic : На просторах Аляски / National Geographic : Braving Alaska [1992, Научно-популярный, DVDRip]

Научно-популярные фильмы Национального географического общества
Торрент Сидеров Личеров Размер
torrent_5044783.torrent
0 0 1018.68 МБ
Аватара пользователя
Солнышко
Сообщения: 22944
Зарегистрирован: 13 янв 2016, 22:10

National Geographic : На просторах Аляски / National Geographic : Braving Alaska [1992, Научно-популярный, DVDRip]

Сообщение Солнышко » 22 мар 2018, 22:16

National Geographic : На просторах Аляски / National Geographic : Braving Alaska
Дата/Год выпуска: 1992
Страна: США
Жанр: Научно-популярный
Продолжительность: 00:54:50
Перевод: Студийный (одноголосый закадровый)
Русские субтитры: нет
Оригинальная аудиодорожка: нет
Описание: Рассказ об Аляске
качество: DVDRip
формат: AVI
Видео: Video: 640x400 (1.60:1), 25 fps, XviD build 50 ~1976 kbps avg, 0.31 bit/pixel
Аудио: Audio: 44.100 kHz, MPEG Layer 3, 2 ch, ~128.00 kbps avg
http://sendfile.su/1138387

Код: Выделить всё

Общее
Полное имя                               : H:\1\NG  На просторах Аляски.avi
Формат                                   : AVI
Формат/Информация                        : Audio Video Interleave
Размер файла                             : 1019 Мбайт
Продолжительность                        : 54 м.
Общий поток                              : 2598 Кбит/сек
Программа кодирования                    : Lavf52.57.1
Видео
Идентификатор                            : 0
Формат                                   : xvid
Идентификатор кодека                     : xvid
Продолжительность                        : 54 м.
Битрейт                                  : 2458 Кбит/сек
Ширина                                   : 640 пикселей
Высота                                   : 400 пикселей
Соотношение сторон                       : 16:10
Частота кадров                           : 25,000 кадров/сек
Бит/(Пиксели*Кадры)                      : 0.384
Размер потока                            : 964 Мбайт (95%)
Аудио
Идентификатор                            : 1
Формат                                   : MPEG Audio
Версия формата                           : Version 1
Профиль формата                          : Layer 3
Режим                                    : Joint stereo
Расширение режима                        : MS Stereo
Идентификатор кодека                     : 55
Идентификатор кодека/Подсказка           : MP3
Продолжительность                        : 54 м.
Вид битрейта                             : Постоянный
Битрейт                                  : 128 Кбит/сек
Каналы                                   : 2 канала
Частота                                  : 44,1 КГц
Метод сжатия                             : С потерями
Размер потока                            : 50,2 Мбайт (5%)
Выравнивание                             : Соединение по промежуткам
Продолжительность промежутка             : 26  мс. (0,65 видеокадр)
Библиотека кодирования                   : LAME3.98.2ЄЄЄЄЄЄЄЄЄЄ









У вас нет необходимых прав для просмотра вложений в этом сообщении.