Рождение Европы / Birth of Europe (3 эпизода из 3) (Мэтт Каррингтон / Matt Currington) [2011, Документальный, природа, ж

Научно-популярные фильмы Национального географического общества
Торрент Сидеров Личеров Размер
torrent_4429271.torrent
0 0 2.19 ГБ
Аватара пользователя
Солнышко
Сообщения: 22944
Зарегистрирован: 13 янв 2016, 22:10

Рождение Европы / Birth of Europe (3 эпизода из 3) (Мэтт Каррингтон / Matt Currington) [2011, Документальный, природа, ж

Сообщение Солнышко » 22 мар 2018, 22:16

Рождение Европы / Birth of Europe

Страна: Великобритания
Жанр: Документальный, природа, живая природа
Год выпуска: 2011
Продолжительность: 3 х ~ 00:45:00
Перевод: Профессиональный (дублированный)
Субтитры: нет
Режиссер: Мэтт Каррингтон / Matt Currington
Описание: Европа - место с поразительно разнообразной природой. Она простирается от заснеженного Крайнего Севера до берегов Африки. Этот сериал - эпическая история происхождения Европы, связанная со столкновением континентов, извержением вулканов, ледниковым периодом и даже со столкновением астероида с Землей. Европа - древний континент, известный как колыбель западной цивилизации, чья большая часть как появилась, так и исчезла, а её пейзаж мало изменился за тысячи лет. Наследие человеческой истории маскирует внушающее трепет геологическое прошлое, которое претерпевало постоянные изменения, драматические и порой жестокие. Рожденная в первые дни Земли, Европа постоянно ощущала на себе мощные силы матери-природы. Она была выкована в огне и смята столкновениями континентов, высечена водой и огнем...
Качество видео: HDRip []
Формат видео: AVI
Видео: 688x384 (1.79:1), 25 fps, XviD build 50 ~1921 kbps avg, 0.29 bit/pixel
Аудио 1: 48 kHz, AC3, 2/0 (L,R), ~192 kbps avg | DUB
Аудио 2: 48 kHz, AC3, 2/0 (L,R), ~192 kbps avg | ENG



Представьте, что вы смотрите на странную незнакомую Землю. Это Европа далекого прошлого. 50 миллионов лет назад Европа выглядела совсем иначе. Главное орудие этой трансформации не тектонические силы, которые крушат и изгибают земную кору, не вулканы, выплевывающие лаву из подземных глубин, а... вода. Знакомая и вездесущая, она украшает европейские рестораны, течет через великие европейские города и лежит замерзшей на европейских склонах гор. Но она может быть не столь мягкой. Это самое мощное оружие в арсенале матери-природы.
Код:

Код: Выделить всё

General
Complete name                            : D:\ФИЛЬМЫ\Birth.of.Europe.HDRip.andre90\Birth.of.Europe.E01.Water.avi
Format                                   : AVI
Format/Info                              : Audio Video Interleave
File size                                : 746 MiB
Duration                                 : 44mn 59s
Overall bit rate                         : 2 319 Kbps
Writing application                      : VirtualDubMod 1.5.10.2 (build 2540/release)
Writing library                          : VirtualDubMod build 2540/release
Video
ID                                       : 0
Format                                   : MPEG-4 Visual
Format profile                           : Advanced Simple@L5
Format settings, BVOP                    : 1
Format settings, QPel                    : No
Format settings, GMC                     : No warppoints
Format settings, Matrix                  : Custom
Codec ID                                 : XVID
Codec ID/Hint                            : XviD
Duration                                 : 44mn 59s
Bit rate                                 : 1 921 Kbps
Width                                    : 688 pixels
Height                                   : 384 pixels
Display aspect ratio                     : 16:9
Frame rate                               : 25.000 fps
Color space                              : YUV
Chroma subsampling                       : 4:2:0
Bit depth                                : 8 bits
Scan type                                : Progressive
Compression mode                         : Lossy
Bits/(Pixel*Frame)                       : 0.291
Stream size                              : 618 MiB (83%)
Writing library                          : XviD 1.2.1 (UTC 2008-12-04)
Audio #1
ID                                       : 1
Format                                   : AC-3
Format/Info                              : Audio Coding 3
Mode extension                           : CM (complete main)
Format settings, Endianness              : Big
Codec ID                                 : 2000
Duration                                 : 44mn 59s
Bit rate mode                            : Constant
Bit rate                                 : 192 Kbps
Channel(s)                               : 2 channels
Channel positions                        : Front: L R
Sampling rate                            : 48.0 KHz
Bit depth                                : 16 bits
Compression mode                         : Lossy
Stream size                              : 61.8 MiB (8%)
Alignment                                : Split accross interleaves
Interleave, duration                     : 40 ms (1.00 video frame)
Interleave, preload duration             : 500 ms
Title                                    : DUB
Audio #2
ID                                       : 2
Format                                   : AC-3
Format/Info                              : Audio Coding 3
Mode extension                           : CM (complete main)
Format settings, Endianness              : Big
Codec ID                                 : 2000
Duration                                 : 44mn 59s
Bit rate mode                            : Constant
Bit rate                                 : 192 Kbps
Channel(s)                               : 2 channels
Channel positions                        : Front: L R
Sampling rate                            : 48.0 KHz
Bit depth                                : 16 bits
Compression mode                         : Lossy
Stream size                              : 61.8 MiB (8%)
Alignment                                : Split accross interleaves
Interleave, duration                     : 40 ms (1.00 video frame)
Interleave, preload duration             : 500 ms
Title                                    : ENG
Европа - колыбель западной цивилизации. Последние 200 миллионов лет история Европы указывает на её жестокое прошлое. Земля под нами двигается с катастрофическими последствиями. Взрывные извержения разрывают континенты на части. Континенты врезаются друг в друга и образуют горные системы. Смертельно опасные землетрясения встряхивают поверхность. Ни одна сила не играла столь великой роли в рождении Европы, как само движение земли.
Код:

Код: Выделить всё

General
Complete name                            : D:\ФИЛЬМЫ\Birth.of.Europe.HDRip.andre90\Birth.of.Europe.E02.Collision.avi
Format                                   : AVI
Format/Info                              : Audio Video Interleave
File size                                : 746 MiB
Duration                                 : 44mn 59s
Overall bit rate                         : 2 319 Kbps
Writing application                      : VirtualDubMod 1.5.10.2 (build 2540/release)
Writing library                          : VirtualDubMod build 2540/release
Video
ID                                       : 0
Format                                   : MPEG-4 Visual
Format profile                           : Advanced Simple@L5
Format settings, BVOP                    : 1
Format settings, QPel                    : No
Format settings, GMC                     : No warppoints
Format settings, Matrix                  : Custom
Codec ID                                 : XVID
Codec ID/Hint                            : XviD
Duration                                 : 44mn 59s
Bit rate                                 : 1 921 Kbps
Width                                    : 688 pixels
Height                                   : 384 pixels
Display aspect ratio                     : 16:9
Frame rate                               : 25.000 fps
Color space                              : YUV
Chroma subsampling                       : 4:2:0
Bit depth                                : 8 bits
Scan type                                : Progressive
Compression mode                         : Lossy
Bits/(Pixel*Frame)                       : 0.291
Stream size                              : 618 MiB (83%)
Writing library                          : XviD 1.2.1 (UTC 2008-12-04)
Audio #1
ID                                       : 1
Format                                   : AC-3
Format/Info                              : Audio Coding 3
Mode extension                           : CM (complete main)
Format settings, Endianness              : Big
Codec ID                                 : 2000
Duration                                 : 44mn 59s
Bit rate mode                            : Constant
Bit rate                                 : 192 Kbps
Channel(s)                               : 2 channels
Channel positions                        : Front: L R
Sampling rate                            : 48.0 KHz
Bit depth                                : 16 bits
Compression mode                         : Lossy
Stream size                              : 61.8 MiB (8%)
Alignment                                : Split accross interleaves
Interleave, duration                     : 40 ms (1.00 video frame)
Interleave, preload duration             : 500 ms
Title                                    : DUB
Audio #2
ID                                       : 2
Format                                   : AC-3
Format/Info                              : Audio Coding 3
Mode extension                           : CM (complete main)
Format settings, Endianness              : Big
Codec ID                                 : 2000
Duration                                 : 44mn 59s
Bit rate mode                            : Constant
Bit rate                                 : 192 Kbps
Channel(s)                               : 2 channels
Channel positions                        : Front: L R
Sampling rate                            : 48.0 KHz
Bit depth                                : 16 bits
Compression mode                         : Lossy
Stream size                              : 61.8 MiB (8%)
Alignment                                : Split accross interleaves
Interleave, duration                     : 40 ms (1.00 video frame)
Interleave, preload duration             : 500 ms
Title                                    : ENG
Европа 4 миллиарда лет назад. Мир лавы и гигантских вулканов. За тысячелетия он остыл и стал той голубой планетой, которую мы знаем. Так была рождена Европа. Но этот континент никогда не переставал развиваться, и сила огня изменяет его по сей день.
Код:

Код: Выделить всё

General
Complete name                            : D:\ФИЛЬМЫ\Birth.of.Europe.HDRip.andre90\Birth.of.Europe.E03.Fire.avi
Format                                   : AVI
Format/Info                              : Audio Video Interleave
File size                                : 746 MiB
Duration                                 : 45mn 0s
Overall bit rate                         : 2 318 Kbps
Writing application                      : VirtualDubMod 1.5.10.2 (build 2540/release)
Writing library                          : VirtualDubMod build 2540/release
Video
ID                                       : 0
Format                                   : MPEG-4 Visual
Format profile                           : Advanced Simple@L5
Format settings, BVOP                    : 1
Format settings, QPel                    : No
Format settings, GMC                     : No warppoints
Format settings, Matrix                  : Custom
Codec ID                                 : XVID
Codec ID/Hint                            : XviD
Duration                                 : 45mn 0s
Bit rate                                 : 1 920 Kbps
Width                                    : 688 pixels
Height                                   : 384 pixels
Display aspect ratio                     : 16:9
Frame rate                               : 25.000 fps
Color space                              : YUV
Chroma subsampling                       : 4:2:0
Bit depth                                : 8 bits
Scan type                                : Progressive
Compression mode                         : Lossy
Bits/(Pixel*Frame)                       : 0.291
Stream size                              : 618 MiB (83%)
Writing library                          : XviD 1.2.1 (UTC 2008-12-04)
Audio #1
ID                                       : 1
Format                                   : AC-3
Format/Info                              : Audio Coding 3
Mode extension                           : CM (complete main)
Format settings, Endianness              : Big
Codec ID                                 : 2000
Duration                                 : 44mn 59s
Bit rate mode                            : Constant
Bit rate                                 : 192 Kbps
Channel(s)                               : 2 channels
Channel positions                        : Front: L R
Sampling rate                            : 48.0 KHz
Bit depth                                : 16 bits
Compression mode                         : Lossy
Stream size                              : 61.8 MiB (8%)
Alignment                                : Split accross interleaves
Interleave, duration                     : 40 ms (1.00 video frame)
Interleave, preload duration             : 500 ms
Title                                    : DUB
Audio #2
ID                                       : 2
Format                                   : AC-3
Format/Info                              : Audio Coding 3
Mode extension                           : CM (complete main)
Format settings, Endianness              : Big
Codec ID                                 : 2000
Duration                                 : 44mn 59s
Bit rate mode                            : Constant
Bit rate                                 : 192 Kbps
Channel(s)                               : 2 channels
Channel positions                        : Front: L R
Sampling rate                            : 48.0 KHz
Bit depth                                : 16 bits
Compression mode                         : Lossy
Stream size                              : 61.8 MiB (8%)
Alignment                                : Split accross interleaves
Interleave, duration                     : 40 ms (1.00 video frame)
Interleave, preload duration             : 500 ms
Title                                    : ENG
У вас нет необходимых прав для просмотра вложений в этом сообщении.