Загадки истории : Амелия Эрхарт / History`s Secrets : Amelia Earhart (Ноэль Докстейдер) [2006, Документальный, SATRip]

Научно-популярные фильмы Национального географического общества
Торрент Сидеров Личеров Размер
torrent_3693864.torrent
0 0 604.73 МБ
Аватара пользователя
Солнышко
Сообщения: 22944
Зарегистрирован: 13 янв 2016, 22:10

Загадки истории : Амелия Эрхарт / History`s Secrets : Amelia Earhart (Ноэль Докстейдер) [2006, Документальный, SATRip]

Сообщение Солнышко » 22 мар 2018, 22:17

Загадки истории : Амелия Эрхарт / History`s Secrets : Amelia Earhart
Год выпуска: 2006
Страна: США
Жанр: Документальный
Продолжительность: 47 мин.35 сек
Перевод: Профессиональный (одноголосый)
Русские субтитры: нет
Режиссер: Ноэль Докстейдер
Описание: Эрхарт (Earhart) Амелия Мэри (24 июля 1897, Атчисон, США — 2 июля 1937, около острова Хоуленд, Тихий океан), американская летчица, впервые в одиночку совершившая перелет через Атлантический океан. Полеты Эрхарт открыли женщинам дорогу в авиацию.
Окончила среднюю школу в 1916 в Чикаго. Во время Первой мировой войны работала военной медсестрой, а после войны — в патронаже дома Денисон в Бостоне. Вопреки воле родителей училась летать в 1920-21, а в 1922 купила свой первый самолет «Киннер». 17-18 июня 1928 стала первой женщиной, участвовавшей в качестве пассажирки в перелете через Атлантику за 20 часов 40 минут. В 1931 вышла замуж за издателя Джорджа Палмера Путнама, но продолжила карьеру под девичьей фамилией. Муж финансировал ее полеты и создавал им рекламу.
20-21 мая 1932 Эрхарт в одиночку совершила перелет на самолете «Локхид Вега» через Атлантику за рекордно короткое время 14 часов 56 минут от Ньюфаундленда до Ирландии. Вскоре она написала книгу об этом перелете. Ее достижения стимулировали ряд перелетов через Соединенные Штаты и развитие коммерческой авиации. В январе 1935 Эрхарт также в одиночку совершила перелет от Гавайских островов до Калифорнии — более протяженный, чем от США до Европы.
В 1937 она вместе со штурманом Фредом Нунаном на самолете «Локхид Электра» попыталась совершить кругосветный перелет. Однако их самолет, успешно пройдя две трети пути, бесследно исчез в Тихом океане. Это загадочное исчезновение вызвало множество версий и предположений, ни одно из которых не получило подтверждение и по сей день.
Формат : AVI
Формат/Информация : Audio Video Interleave
Размер файла : 605 Мбайт
Продолжительность : 47 м.
Общий поток : 1777 Кбит/сек
Программа кодирования : XviD4PSP 6.0 / 53.6.0
Видео
Идентификатор : 0
Формат : MPEG-4 Visual
Профиль формата : Advanced Simple@L5
Параметр BVOP формата : 1
Параметр QPel формата : Нет
Параметр GMC формата : Без точки перехода
Параметр матрицы формата : Default (H.263)
Идентификатор кодека : XVID
Идентификатор кодека/Подсказка : XviD
Продолжительность : 47 м.
Битрейт : 1500 Кбит/сек
Ширина : 536 пикс.
Высота : 448 пикс.
Соотношение сторон : 1,689
Частота кадров : 25,000 кадр/сек
Цветовое пространство : YUV
Подвыборка цветности : 4:2:0
Битовая глубина : 8 бит
Тип развёртки : Прогрессивная
Метод сжатия : С потерями
Бит/(Пиксели*Кадры) : 0.250
Размер потока : 510 Мбайт (84%)
Библиотека кодирования : XviD 64
Аудио #1
Идентификатор : 1
Формат : MPEG Audio
Версия формата : Version 1
Профиль формата : Layer 3
Режим : Joint stereo
Идентификатор кодека : 55
Идентификатор кодека/Подсказка : MP3
Продолжительность : 47 м.
Вид битрейта : Постоянный
Битрейт : 128 Кбит/сек
Каналы : 2 канала
Частота : 48,0 КГц
Метод сжатия : С потерями
Размер потока : 43,6 Мбайт (7%)
Выравнивание : Соединение по промежуткам
Продолжительность промежутка : 24 мс. (0,60 видеокадр)
Библиотека кодирования : LAME3.98.
Аудио #2
Идентификатор : 2
Формат : MPEG Audio
Версия формата : Version 1
Профиль формата : Layer 3
Режим : Joint stereo
Расширение режима : MS Stereo
Идентификатор кодека : 55
Идентификатор кодека/Подсказка : MP3
Продолжительность : 47 м.
Вид битрейта : Постоянный
Битрейт : 128 Кбит/сек
Каналы : 2 канала
Частота : 48,0 КГц
Метод сжатия : С потерями
Размер потока : 43,6 Мбайт (7%)
Выравнивание : Соединение по промежуткам
Продолжительность промежутка : 24 мс. (0,60 видеокадр)
Библиотека кодирования : LAME3.98.2
Качество: SATRip
Формат: AVI
Видео кодек: XviD
Видео: MPEG-4 Visual at 1500 Кбит/сек ,536 x 448 (1.689) at 25.000 fps
Аудио: MPEG Audio at 128 Кбит/сек ,2 канала, 48,0 КГц , русский
Аудио: MPEG Audio at 128 Кбит/сек ,2 канала, 48,0 КГц , английский
У вас нет необходимых прав для просмотра вложений в этом сообщении.