10 сценариев конца света: Последние дни человечества (Эпизод 2) / 10 Ways to End the World, Episode 2 [2011, Документаль

Научно-популярные фильмы Национального географического общества
Торрент Сидеров Личеров Размер
torrent_4288360.torrent
0 0 607.64 МБ
Аватара пользователя
Солнышко
Сообщения: 22944
Зарегистрирован: 13 янв 2016, 22:10

10 сценариев конца света: Последние дни человечества (Эпизод 2) / 10 Ways to End the World, Episode 2 [2011, Документаль

Сообщение Солнышко » 22 мар 2018, 22:18

10 сценариев конца света: Последние дни человечества (Эпизод 2) / 10 Ways to End the World, Episode 2
Год выпуска: 2011
Страна: США
Жанр: Документальный
Продолжительность: 00:44:40
Перевод: Профессиональный (одноголосый)
Описание: От коллапсирующих звезд до смертоносных эпидемий, ученые исследуют пять потенциальных угроз, которые могут уничтожить человечество.
10 сценариев конца света: Последние дни человечества - 2
Уничтожит ли человечество само себя? Ученые рассматривают разные сценарии конца света, угрожающие нам, от атомной войны до изменения климата.


Качество: SATRip
Формат: AVI
Видео кодек: XviD
Аудио кодек: MP3
Видео: XviD MPEG-4, 1747 Кбит/сек, 720 x 400 (1.760) at 25.000 fps
Аудио: MP3, 2 ch, 128 kb/s, 48 kHz
Раздача группы:
Релиз: Roumek & Shel

Код: Выделить всё

Общее
Полное имя                       : E:\Downloads\55\10.Ways.to.End.the.World.Episode.2.of.2.(2011).avi
Формат                           : AVI
Формат/Информация                : Audio Video Interleave
Размер файла                     : 608 Мбайт
Продолжительность                : 44 м.
Общий поток                      : 1888 Кбит/сек
Название фильма                  : rip by Roumek & BigFANGroup
Библиотека кодирования           : TMPGEnc 4.0 XPress Version. 4.7.7.307
Видео
Идентификатор                    : 0
Формат                           : MPEG-4 Visual
Профиль формата                  : Advanced Simple@L5
Параметр BVOP формата            : 2
Параметр QPel формата            : Нет
Параметр GMC формата             : Без точки перехода
Параметр матрицы формата         : Default (H.263)
Режим смешивания                 : Сжатый битовый поток
Идентификатор кодека             : XVID
Идентификатор кодека/Подсказка   : XviD
Продолжительность                : 44 м.
Битрейт                          : 1747 Кбит/сек
Ширина                           : 720 пикс.
Высота                           : 400 пикс.
Соотношение сторон               : 16:9
Частота кадров                   : 25,000 кадр/сек
Цветовое пространство            : YUV
Подвыборка цветности             : 4:2:0
Битовая глубина                  : 8 бит
Тип развёртки                    : Прогрессивная
Метод сжатия                     : С потерями
Бит/(Пиксели*Кадры)              : 0.243
Размер потока                    : 562 Мбайт (93%)
Библиотека кодирования           : XviD 1.2.1 (UTC 2008-12-04)
Аудио
Идентификатор                    : 1
Формат                           : MPEG Audio
Версия формата                   : Version 1
Профиль формата                  : Layer 3
Режим                            : Joint stereo
Расширение режима                : MS Stereo
Идентификатор кодека             : 55
Идентификатор кодека/Подсказка   : MP3
Продолжительность                : 44 м.
Вид битрейта                     : Постоянный
Битрейт                          : 128 Кбит/сек
Каналы                           : 2 канала
Частота                          : 48,0 КГц
Метод сжатия                     : С потерями
Размер потока                    : 41,2 Мбайт (7%)
Выравнивание                     : Соединение по промежуткам
Продолжительность промежутка     : 40  мс. (1,01 видеокадр)
Время предзагрузки промежутка    : 384 ms
У вас нет необходимых прав для просмотра вложений в этом сообщении.