National Geographic: Обезьяночеловек (1-3 серии из 3) / National Geographic: Ape Man (Мэтью Гилб) [2013, Документальный,

Научно-популярные фильмы Национального географического общества
Торрент Сидеров Личеров Размер
torrent_4537213.torrent
0 0 1.6 ГБ
Аватара пользователя
Солнышко
Сообщения: 22944
Зарегистрирован: 13 янв 2016, 22:10

National Geographic: Обезьяночеловек (1-3 серии из 3) / National Geographic: Ape Man (Мэтью Гилб) [2013, Документальный,

Сообщение Солнышко » 22 мар 2018, 22:19

National Geographic: Обезьяночеловек (1-3 серии из 3) / National Geographic: Ape Man
Год выпуска: 2013
Страна: США
Жанр: Документальный, познавательный, эволюция, психология
Продолжительность: 3 х ~ 00:45:00
Перевод: Профессиональный (дублированный)
Режиссер: Мэтью Гилб
Описание: Это было 6 миллионов лет назад. Мы считаем себя сложно устроенными существами, но если присмотреться, наше поведение во многом напоминает поведение приматов. В этих фильмах знакомство с Вашей внутренней обезьяной при помощи экспериментов и скрытых камер.
Релиз записан и подготовлен релиз группой: GeneralFilm. Rip by vsobbol
качество: IPTVRip
Видео: XviD, ~ 1500 Кбит/с, 720x400
Аудио: MP3, 2 ch, 192 Кбит/с
D:\Downloads\Obezijanochelovek.2013.Xvid.IPTVRip.by.GeneralFilm\01.Obezijanochelovek.2013.Xvid.IPTVRip.by.GeneralFilm.avi
General
Complete name : D:\Downloads\Obezijanochelovek.2013.Xvid.IPTVRip.by.GeneralFilm\01.Obezijanochelovek.2013.Xvid.IPTVRip.by.GeneralFilm.avi
Format : AVI
Format/Info : Audio Video Interleave
File size : 546 MiB
Duration : 44mn 49s
Overall bit rate : 1 703 Kbps
Writing application : VirtualDubMod 1.5.10.3 | www.virtualdub-fr.org || (build 2550/release)
Writing library : VirtualDubMod build 2550/release
Video #0
ID : 0
Format : MPEG-4 Visual
Format profile : Advanced Simple@L5
Format settings, BVOP : 1
Format settings, QPel : No
Format settings, GMC : No warppoints
Format settings, Matrix : Default (H.263)
Codec ID : XVID
Codec ID/Hint : XviD
Duration : 44mn 49s
Bit rate : 1 501 Kbps
Width : 720 pixels
Height : 400 pixels
Display aspect ratio : 16:9
Frame rate : 25.000 fps
Color space : YUV
Chroma subsampling : 4:2:0
Bit depth : 8 bits
Scan type : Progressive
Compression mode : Lossy
Bits/(Pixel*Frame) : 0.209
Stream size : 481 MiB (88%)
Writing library : XviD 73
Audio #1
ID : 1
Format : MPEG Audio
Format version : Version 1
Format profile : Layer 3
Codec ID : 55
Codec ID/Hint : MP3
Duration : 44mn 49s
Bit rate mode : Constant
Bit rate : 192 Kbps
Channel(s) : 2 channels
Sampling rate : 48.0 KHz
Compression mode : Lossy
Stream size : 61.6 MiB (11%)
Alignment : Aligned on interleaves
Interleave, duration : 40 ms (1.00 video frame)
Interleave, preload duration : 504 ms
Writing library : LAME3.99r
Encoding settings : -m s -V 4 -q 2 -lowpass 18.6 -b 192
01. Альфа-самец
Рассказ о пугающе схожих особенностях людей и обезьян и тех базовых инстинктах, которые лежат в основе конкурентного поведения обоих видов.
02. Брачные игры
Психологические корни сексуального поведения людей берут начало в мире обезьян. Убедитесь, насколько схожи наши ритуалы ухаживания и спаривания.
03. Карьеристы
Исследование схожести желаний людей и обезьян быть принятыми их окружением и схожести моделей поведения.
У вас нет необходимых прав для просмотра вложений в этом сообщении.