National Geographic: Последние тайны Третьего рейха: Семья Гитлера / Nazi underworld. Hitler's family (Флориан Беер, Том

Научно-популярные фильмы Национального географического общества
Торрент Сидеров Личеров Размер
torrent_4714177.torrent
0 0 702.22 МБ
Аватара пользователя
Солнышко
Сообщения: 22944
Зарегистрирован: 13 янв 2016, 22:10

National Geographic: Последние тайны Третьего рейха: Семья Гитлера / Nazi underworld. Hitler's family (Флориан Беер, Том

Сообщение Солнышко » 22 мар 2018, 22:20

National Geographic: Последние тайны Третьего рейха: Семья Гитлера / Nazi underworld. Hitler's family

Дата/Год выпуска: 2011
Страна: США / ZDF Production
Жанр: Документальный
Продолжительность: 00:44:59
Перевод: Студийный (одноголосый закадровый)
Доп. инфо о переводе: АРК ТВ
Русские субтитры: нет
Режиссер: Флориан Беер, Томас Стайхлер / Florian Beier, Thomas Staehler
Телеканал: National Geographic
Описание: В основе гитлеровской идеологии лежал миф о чистоте расы, главное происхождение, в роду последователей фюрера должны быть только немцы. Из-за происхождения многих выгнали из партии, некоторых даже казнили, при этом происхождение самого фюрера оставалось тайной. Оказывается, его предки были далеки от нацистского идеала о чистоте расы "господ". Сам Гитлер говорил: "Никто не должен знать кто я, и пусть никто не узнает откуда я, и из какой семьи"...
Сэмпл: http://multi-up.com/966442
качество: HDTVRip (Semiy.Gitlera.2011.HDTVRip.mkv)
формат: AVI
Видео: 720x400 (16:9), 25 fps, XviD MPEG-4 ~1980 kbps avg, 0.275 bit/pixel
Аудио: 48 kHz, AC3 Dolby Digital, 2/0 (L,R) ch, ~192 kbps - Профессиональный ((одноголосый закадровый) АРК ТВ
&

Код: Выделить всё

Общее
Полное имя                               : E:\Фильмы М\Nazi.underworld.Hitler's.family.2011.HDTVRip.avi
Формат                                   : AVI
Формат/Информация                        : Audio Video Interleave
Размер файла                             : 702 Мбайт
Продолжительность                        : 44 м.
Общий поток                              : 2182 Кбит/сек
Название фильма                          : Nazi.underworld.Hitler's.family.2011.HDTVRip
Режиссёр                                 : rip by maygli
Программа кодирования                    : VirtualDubModRus 1.5.10.2 (build 2542/release)
Правообладатель                          : ...  (RG Rulya74)
Видео
Идентификатор                            : 0
Формат                                   : MPEG-4 Visual
Профиль формата                          : Advanced Simple@L5
Параметр BVOP формата                    : 1
Параметр QPel формата                    : Нет
Параметр GMC формата                     : Без точки перехода
Параметр матрицы формата                 : Выборочная
Идентификатор кодека                     : XVID
Идентификатор кодека/Подсказка           : XviD
Продолжительность                        : 44 м.
Битрейт                                  : 1980 Кбит/сек
Ширина                                   : 720 пикселей
Высота                                   : 400 пикселей
Соотношение сторон                       : 16:9
Частота кадров                           : 25,000 кадров/сек
Цветовое пространство                    : YUV
Субдискретизация насыщенности            : 4:2:0
Битовая глубина                          : 8 бит
Тип развёртки                            : Прогрессивная
Метод сжатия                             : С потерями
Бит/(Пиксели*Кадры)                      : 0.275
Размер потока                            : 637 Мбайт (91%)
Библиотека кодирования                   : XviD 65
Аудио
Идентификатор                            : 1
Формат                                   : AC-3
Формат/Информация                        : Audio Coding 3
Расширение режима                        : CM (complete main)
Параметр Endianness формата              : Big
Идентификатор кодека                     : 2000
Продолжительность                        : 44 м.
Вид битрейта                             : Постоянный
Битрейт                                  : 192 Кбит/сек
Каналы                                   : 2 канала
Расположение каналов                     : Front: L R
Частота                                  : 48,0 КГц
Битовая глубина                          : 16 бит
Метод сжатия                             : С потерями
Размер потока                            : 61,8 Мбайт (9%)
Выравнивание                             : Разделение по промежуткам
Продолжительность промежутка             : 40  мс. (1,00 видеокадр)
Время предзагрузки промежутка            : 500  мс.
Заголовок                                : Профессиональный (одноголосый закадровый) АРК ТВ
У вас нет необходимых прав для просмотра вложений в этом сообщении.