Леонардо да Винчи: человек-загадка / Загадки мертвых: Леонардо и Туринская плащаница / Riddles of the dead: Leonardo: Th

Научно-популярные фильмы Национального географического общества
Торрент Сидеров Личеров Размер
torrent_3370480.torrent
0 0 1.33 ГБ
Аватара пользователя
Солнышко
Сообщения: 22944
Зарегистрирован: 13 янв 2016, 22:10

Леонардо да Винчи: человек-загадка / Загадки мертвых: Леонардо и Туринская плащаница / Riddles of the dead: Leonardo: Th

Сообщение Солнышко » 22 мар 2018, 22:20

Леонардо да Винчи: человек-загадка / Загадки мертвых: Леонардо и Туринская плащаница / Riddles of the dead: Leonardo: The man behind the shroud
Год выпуска: 2001
Страна: США
Жанр: документальный фильм
Перевод: многоголосый
Продолжительность: 00:50:00
Русские субтитры: нет

Режиссер: Susan Gray / Сьюзэн Грэй

Описание: Одной из самых священных реликвий католической церкви является Туринская Плащеница. Кто-то считает что это подлинное погребальное одеяние Христа,однако до сих пор её происхождение окутанно тайной. В последнее время появились свидетельства ,что эта христианская святыня имеет отношение к одному из величайших умов человечества - Леонардо да Винчи. Что это? Лицо Христа или всё таки небывалая искусная подделка? Будет ли разгадана эта божественная загадка мёртвых?

Качество: IPTV
Формат: mpg
Видео кодек: MPEG-PS
Аудио кодек: MPEG1 L2
Видео: MPEG Video at 3 399 Kbps 720 x 576 (1.333) at 25.000 fps
Аудио: MPEG Audio at 192 Kbps 2 channels, 48.0 KHz
Format : MPEG-PS
File size : 1.33 GiB
Duration : 50mn 50s
Overall bit rate : 3 740 Kbps
Video
ID : 224 (0xE0)
Format : MPEG Video
Format version : Version 2
Format profile : Main@Main
Format settings, Matrix : Default
Duration : 50mn 50s
Bit rate mode : Variable
Bit rate : 3 399 Kbps
Nominal bit rate : 3 500 Kbps
Width : 720 pixels
Height : 576 pixels
Display aspect ratio : 4:3
Frame rate : 25.000 fps
Standard : PAL
Colorimetry : 4:2:0
Scan type : Interlaced
Scan order : Top Field First
Bits/(Pixel*Frame) : 0.328
Stream size : 1.21 GiB (91%)
Audio
ID : 192 (0xC0)
Format : MPEG Audio
Format version : Version 1
Format profile : Layer 2
Duration : 50mn 50s
Bit rate mode : Constant
Bit rate : 192 Kbps
Channel(s) : 2 channels
Sampling rate : 48.0 KHz
Resolution : 16 bits
Stream size : 69.8 MiB (5%)
Релиз группы
У вас нет необходимых прав для просмотра вложений в этом сообщении.