National Geographic Международный аэропорт Дубай / Ultimate Airport Dubai (1 Сезон 10 серий из 10) [2013, Документальный

Научно-популярные фильмы Национального географического общества
Торрент Сидеров Личеров Размер
torrent_4552155.torrent
0 0 6.3 ГБ
Аватара пользователя
Солнышко
Сообщения: 22944
Зарегистрирован: 13 янв 2016, 22:10

National Geographic Международный аэропорт Дубай / Ultimate Airport Dubai (1 Сезон 10 серий из 10) [2013, Документальный

Сообщение Солнышко » 22 мар 2018, 22:20

Международный аэропорт Дубай / Ultimate Airport Dubai
Год выпуска: 2013
Страна: США, National Geographic
Жанр: Документальный
Продолжительность: 00:44:59
Перевод: Профессиональный (одноголосый) студия АРК ТВ
Русские субтитры: нет
Режиссер: Давид Ковард / David Coward
Описание: Менее 55 лет назад на месте Международного аэропорта Дубая была огромная пустыня. Но сегодня это мекка международных воздушных перевозок. Это третий по загруженности аэропорт в мире для пассажиров международных рейсов, он принимает 344 000 рейсов, 57 млн. пассажиров и 2000 тысяч тонн грузов в год. Канал National Geographic покажет закулисную жизнь трех международных терминалов аэропорта, в том числе терминала 3 - самого большого здания на земле, его размер составляет 359 футбольных полей! Беспрецедентный доступ ко всем аспектам этого мега-центра – этот сериал показывает некоторых из 60 000 сотрудников, работающих в аэропорту. От управления воздушным движением, таможенных служб, которые перехватывают подозреваемых в контрабанде наркотиков до строительства нового терминала стоимостью 3,2 млрд. долларов, National Geographic Channel предоставляет 360 -градусный обзор этого сверхсовременного аэропорта.
качество: SATRip
формат: AVI
Видео: XviD. 720x400 (16:9) 25.00fps ~ 1580 Кбит/сек
Аудио: Русский, AC3, 48 kHz, 2 ch, 192 Кбит/с
Аудио: Английский AC3, 48 kHz, 2 ch, 192 Кбит/с
Официальный сайт
Официальный сайт RU

Релиз
Format : AVI
Format/Info : Audio Video Interleave
File size : 656 MiB
Duration : 44mn 59s
Overall bit rate : 2 037 Kbps
Writing application : VirtualDubModRus 1.5.10.2 (build 2542/release)
Writing library : VirtualDubMod build 2542/release
Video
ID : 0
Format : MPEG-4 Visual
Format profile : Advanced Simple@L5
Format settings, BVOP : 2
Format settings, QPel : No
Format settings, GMC : No warppoints
Format settings, Matrix : Default (H.263)
Codec ID : XVID
Codec ID/Hint : XviD
Duration : 44mn 59s
Bit rate : 1 639 Kbps
Width : 720 pixels
Height : 400 pixels
Display aspect ratio : 16:9
Frame rate : 25.000 fps
Color space : YUV
Chroma subsampling : 4:2:0
Bit depth : 8 bits
Scan type : Progressive
Compression mode : Lossy
Bits/(Pixel*Frame) : 0.228
Stream size : 527 MiB (80%)
Writing library : XviD 1.2.1 (UTC 2008-12-04)
Audio #1
ID : 1
Format : AC-3
Format/Info : Audio Coding 3
Mode extension : CM (complete main)
Format settings, Endianness : Big
Codec ID : 2000
Duration : 44mn 59s
Bit rate mode : Constant
Bit rate : 192 Kbps
Channel count : 2 channels
Channel positions : Front: L R
Sampling rate : 48.0 KHz
Bit depth : 16 bits
Compression mode : Lossy
Stream size : 61.8 MiB (9%)
Alignment : Split accross interleaves
Interleave, duration : 40 ms (1.00 video frame)
Interleave, preload duration : 500 ms
Audio #2
ID : 2
Format : AC-3
Format/Info : Audio Coding 3
Mode extension : CM (complete main)
Format settings, Endianness : Big
Codec ID : 2000
Duration : 44mn 59s
Bit rate mode : Constant
Bit rate : 192 Kbps
Channel count : 2 channels
Channel positions : Front: L R
Sampling rate : 48.0 KHz
Bit depth : 16 bits
Compression mode : Lossy
Stream size : 61.8 MiB (9%)
Alignment : Split accross interleaves
Interleave, duration : 40 ms (1.00 video frame)
Interleave, preload duration : 500 ms

Добавлены 1-10 Серии
Исправлен порядок серий
Если вы скачали данный релиз и хотите выложить его на другом ресурсе -
пожалуйста, указывайте первоисточник
dysonegear
У вас нет необходимых прав для просмотра вложений в этом сообщении.