Земля: Жизнь без людей / Aftermath: Population Zero (Кристофер Роули / Christopher Rowley) [2008, документальный, фантастика, DVDRip]

Научно-популярные фильмы Национального географического общества
Торрент Сидеров Личеров Размер
torrent_5104763.torrent
0 0 743.24 МБ
Аватара пользователя
Солнышко
Сообщения: 22944
Зарегистрирован: 13 янв 2016, 22:10

Земля: Жизнь без людей / Aftermath: Population Zero (Кристофер Роули / Christopher Rowley) [2008, документальный, фантастика, DVDRip]

Сообщение Солнышко » 22 мар 2018, 22:27

Земля: Жизнь без людей / Aftermath: Population Zero
Год выпуска: 2008
Страна: США, Канада
Жанр: Документальный, фантастика
Продолжительность: 01:26:45
Перевод: Студийный (одноголосый, закадровый)
Режиссер: Кристофер Роули / Christopher Rowley
Описание: Что бы случилось, если бы каждый человек на Земле просто исчез? Ушел. Не умер, просто ушел. Это — поразительная история мира, который мы никогда не будем видеть. Мир без людей, где городские улицы все еще населяются автомобилями, но без водителей. Никто не починит мосты, не отремонтирует здания или поддержит электростанции. Будучи управляемым человечеством на протяжении тысячелетий, природа восстанавливает землю. Но как бы это помогло? Как долго небоскребы, атомные электростанции, и наши дома протянули без нас???
Сэмпл: http://multi-up.com/1071842
Формат: AVI
Качество: DVDRip (DVD5)
Видео: XviD, 640x352, 25fps, 1066kbps
Аудио: MPEG Layer 3, 2ch, 48000Hz, 128kbps

Код: Выделить всё

General
Complete name : Zhizn.Bez.Ludei.2008.P1.DVDRip.700.CurHaJI.avi
Format : AVI
Format/Info : Audio Video Interleave
File size : 743 MiB
Duration : 1h 26mn
Overall bit rate : 1 198 Kbps
Movie name : Zhizn.Bez.Ludei.2008.P1.DVDRip.700.CurHaJI
Writing application : VirtualDubMod 1.5.10.3 | www.virtualdub-fr.org || (build 2550/release)
Writing library : VirtualDub build 35491/release
Video
ID : 0
Format : MPEG-4 Visual
Format profile : Advanced Simple@L5
Format settings, BVOP : 2
Format settings, QPel : No
Format settings, GMC : No warppoints
Format settings, Matrix : Custom
Codec ID : XVID
Codec ID/Hint : XviD
Duration : 1h 26mn
Bit rate : 1 060 Kbps
Width : 640 pixels
Height : 352 pixels
Display aspect ratio : 16:9
Frame rate : 25.000 fps
Color space : YUV
Chroma subsampling : 4:2:0
Bit depth : 8 bits
Scan type : Progressive
Compression mode : Lossy
Bits/(Pixel*Frame) : 0.188
Stream size : 658 MiB (89%)
Writing library : XviD 64
Audio
ID : 1
Format : MPEG Audio
Format version : Version 1
Format profile : Layer 3
Codec ID : 55
Codec ID/Hint : MP3
Duration : 1h 26mn
Bit rate mode : Constant
Bit rate : 128 Kbps
Channel(s) : 2 channels
Sampling rate : 48.0 KHz
Compression mode : Lossy
Stream size : 79.4 MiB (11%)
Alignment : Aligned on interleaves
Interleave, duration : 40 ms (1.00 video frame)
Interleave, preload duration : 504 ms
Writing library : L3.99r
Encoding settings : -m s -V 4 -q 2 -lowpass 17 -b 128
У вас нет необходимых прав для просмотра вложений в этом сообщении.