National Geographic. Больше чем фокусы с Ди Эм Си (7 серий из 7) / Beyond Magic With DMC (Симон Арнольд / Simon Arnold) [2014, Документальный, познавательный, HDTVRip]

Научно-популярные фильмы Национального географического общества
Торрент Сидеров Личеров Размер
torrent_5393835.torrent
0 0 4.52 ГБ
Аватара пользователя
Солнышко
Сообщения: 22944
Зарегистрирован: 13 янв 2016, 22:10

National Geographic. Больше чем фокусы с Ди Эм Си (7 серий из 7) / Beyond Magic With DMC (Симон Арнольд / Simon Arnold) [2014, Документальный, познавательный, HDTVRip]

Сообщение Солнышко » 22 мар 2018, 22:28

National Geographic. Больше чем фокусы с Ди Эм Си (7 серий из 7) / Beyond Magic With DMC
Дата/Год выпуска: 2014
Страна: США, Windfall Films. LTD & National Geographic Cha
Жанр: Документальный, познавательный
Продолжительность: 7 x ~ 00:44:00
Перевод: Студийный (одноголосый закадровый)
Режиссер: Симон Арнольд / Simon Arnold
Телеканал: National Geographic
Описание: Откройте призрачное царство магии - от экстрасенсорного восприятия до левитации - в передаче «Больше чем фокусы с Ди Эм Си». Ведущий-маг Драммонд Мани-Каутс своими захватывающими фокусамипокоряет умы зрителей на улицах Лондона, Парижа, Барселоны, Мехико и Сингапура. Вдохновлённый блестящими умами таких великих мастеров как Гудини, прославленного своими сенсационными побегами, Карла Зенера, известного своей работой в области экстрасенсорики, и известного сгибателя ложек Ури Геллера, Ди Эм Си овладевает их поразительными трюками, добавляя собственные нюансы и «фишки» перед носом у аудитории. Эта выдающаяся форма искусства никогда не перестаёт удивлять и ошеломлять. Объединив классические номера с восточным мистицизмом, боевыми искусствами и магией, вдохновлённой Азией Ди Эм Си едет в Сингапур и знакомится со знаменитым китайским фокусником Лу Ченом, чтобы узнать, как азиатской магии удаётся воплотить мечты в реальность. В Лондоне он выступает с шокирующими номерами магии «крупным планом» и классическим карточным фокусом, а в Барселоне окунается в современное искусство, создав инсталляцию с помощью иллюзии. Загадочная магия сочетается с искусством предсказания, перспективы и иллюзии.
Доп. информация: Авторство релиза - alf62

качество: HDTVRip
формат: AVI
Видео: 720x400 (1.80:1), 25 fps, XviD build 73 ~1899 kbps avg, 0.26 bit/pixel
Аудио: 48 kHz, AC3 Dolby Digital, 2/0 (L,R) ch, ~192.00 kbps avg
1. Разорванный
Ди Эм Си открывает свою новую программу воспроизведением выдающегося эскапологического трюка, при выполнении которого 2 года назад он пострадал.
2. Смертельный трюк
Ди Эм Си исследует мир «ментализма», или ментальной магии, и узнает, каким образом мастерам этого жанра удается производить столь сильный эффект.
3. Хождение сквозь стены
Ди Эм Си исследует мир иллюзий, в котором перспектива и восприятие обманывают мозг, заставляя его видеть какую-то иную реальность.
4. Вопреки гравитации
Ди Эм Си исследует мир азиатского иллюзионизма в Сингапуре и показывает поразительные фокусы в честь великих иллюзионистов Востока.
5. Перекрестный огонь
Ди Эм Си показывает, что такие военные приемы, как шифровка, камуфляж, разведка и отвлекающие манёвры имеют прямые соответствия в иллюзионизме.
6. Горящий человек
Ди Эм Си отправляется в международное путешествие, чтобы узнать секреты карточного мастерства, шулерства и фокусов с картами.
7. Карточный фокусник
Ди Эм Си отправляется в международное путешествие, чтобы узнать секреты карточного мастерства, шулерства и фокусов с картами.

Код: Выделить всё

Ди.Эм.Си.(1.серия).Разорванный.2014.XviD.HDTVRip.alf62.avi
Формат                                   : AVI
Формат/Информация                        : Audio Video Interleave
Размер файла                             : 661 Мбайт
Продолжительность                        : 43 м.
Общий поток                              : 2102 Кбит/сек
Программа кодирования                    : VirtualDubModRus 1.5.10.2 (build 2542/release)
Библиотека кодирования                   : VirtualDubMod build 2542/release
Видео
Идентификатор                            : 0
Формат                                   : MPEG-4 Visual
Профиль формата                          : Advanced Simple@L5
Параметр BVOP формата                    : 2
Параметр QPel формата                    : Нет
Параметр GMC формата                     : Без точки перехода
Параметр матрицы формата                 : Default (MPEG)
Идентификатор кодека                     : XVID
Идентификатор кодека/Подсказка           : XviD
Продолжительность                        : 43 м.
Битрейт                                  : 1900 Кбит/сек
Ширина                                   : 720 пикселей
Высота                                   : 400 пикселей
Соотношение сторон                       : 16:9
Частота кадров                           : 25,000 кадров/сек
Цветовое пространство                    : YUV
Субдискретизация насыщенности            : 4:2:0
Битовая глубина                          : 8 бит
Тип развёртки                            : Прогрессивная
Метод сжатия                             : С потерями
Бит/(Пиксели*Кадры)                      : 0.264
Размер потока                            : 598 Мбайт (90%)
Библиотека кодирования                   : XviD 73
Аудио
Идентификатор                            : 1
Формат                                   : AC-3
Формат/Информация                        : Audio Coding 3
Расширение режима                        : CM (complete main)
Параметр Endianness формата              : Big
Идентификатор кодека                     : 2000
Продолжительность                        : 43 м.
Вид битрейта                             : Постоянный
Битрейт                                  : 192 Кбит/сек
Каналы                                   : 2 канала
Расположение каналов                     : Front: L R
Частота                                  : 48,0 КГц
Битовая глубина                          : 16 бит
Метод сжатия                             : С потерями
Размер потока                            : 60,4 Мбайт (9%)
Выравнивание                             : Разделение по промежуткам
Продолжительность промежутка             : 40  мс. (1,00 видеокадр)
Время предзагрузки промежутка            : 500  мс.

У вас нет необходимых прав для просмотра вложений в этом сообщении.